<?xml version="1.0" standalone="no"?>
<!DOCTYPE svg PUBLIC "-//W3C//DTD SVG 1.1//EN" "http://www.w3.org/Graphics/SVG/1.1/DTD/svg11.dtd">
<svg xmlns="http://www.w3.org/2000/svg"><metadata>This SVG WebFont was generated by YouWorkForThem.
Copyright Â© 2020 by ame.studio. All rights reserved.</metadata><defs><font horiz-adv-x="1830" id="ywftsvg"><font-face ascent="1536" bbox="-307 -512 3578 2095" cap-height="1434" descent="-512" font-family="" font-stretch="normal" font-weight="700" panose-1="0 0 8 0 0 0 0 0 0 0" underline-position="0" underline-thickness="0" unicode-range="U+0020-263C" units-per-em="2048" x-height="1024"/><missing-glyph d="M172 1536h1393v-1536h-1393v1536zM1108 1270h-649v-862zM662 266h616v778z" horiz-adv-x="1736"/><glyph d="M172 1536h1393v-1536h-1393v1536zM1108 1270h-649v-862zM662 266h616v778z" glyph-name=".notdef" horiz-adv-x="1736"/><glyph glyph-name="glyph1" horiz-adv-x="0"/><glyph glyph-name="glyph2" horiz-adv-x="681"/><glyph glyph-name="space" horiz-adv-x="1024" unicode=" "/><glyph d="M184 1434h348l-30 -985h-287zM342 -2q-100 0 -142 37t-42 127q0 86 43 125t141 39t141 -39t43 -125q0 -90 -42 -127t-142 -37z" glyph-name="exclam" horiz-adv-x="706" unicode="!"/><glyph d="M129 1434h303l-20 -566h-262zM676 1434h303l-21 -566h-262z" glyph-name="quotedbl" horiz-adv-x="1107" unicode="&quot;"/><glyph d="M2236 758h-387l-98 -207h422l-135 -266h-414l-133 -281h-328l133 281h-497l-133 -281h-328l133 281h-383l135 266h377l98 207h-411l135 266h403l156 326h328l-156 -326h496l155 326h328l-156 -326h396zM1423 551l99 207h-496l-98 -207h495z" glyph-name="numbersign" horiz-adv-x="2459" unicode="#"/><glyph d="M1890 424q0 -211 -189.5 -321.5t-535.5 -127.5v-245h-307v247q-350 27 -537.5 161t-181.5 345l371 -6q14 -174 348 -201v291q-8 2 -26.5 3t-26.5 1q-285 20 -458 129t-173 295q0 190 164 314.5t520 148.5v262h307v-260q315 -25 489.5 -160t174.5 -325h-369 q-12 82 -73.5 128t-221.5 62v-301q25 -2 76 -5t76 -5q573 -41 573 -430zM543 1014q0 -63 71.5 -90t243.5 -41v288q-313 -16 -315 -157zM1520 408q2 66 -73 92t-282 45v-275q353 13 355 138z" glyph-name="dollar" horiz-adv-x="2027" unicode="$"/><glyph d="M512 1440q389 0 389 -371q0 -166 -92 -267.5t-295 -101.5q-213 0 -302 105.5t-89 271.5q0 363 389 363zM1651 1434l-875 -1434h-307l874 1434h308zM512 897q113 0 145.5 35t32.5 133q0 100 -33.5 140t-144.5 40q-109 0 -143.5 -41t-34.5 -139t33.5 -133t144.5 -35z M1642.5 739q389.5 0 389.5 -370q0 -166 -92.5 -267.5t-294.5 -101.5q-213 0 -302.5 105.5t-89.5 271.5q0 362 389.5 362zM1642 197q113 0 146 34.5t33 133.5q0 100 -34 140t-145 40q-109 0 -143.5 -41t-34.5 -139.5t33.5 -133t144.5 -34.5z" glyph-name="percent" horiz-adv-x="2154" unicode="%"/><glyph d="M1444 389q139 -86 225 -186l-213 -215q-55 66 -164 145q-180 -166 -542 -166q-616 0 -617 443q0 219 176 352q-84 119 -84 262q0 227 117 318.5t373 91.5q266 0 380.5 -93.5t114.5 -316.5q0 -162 -83 -253t-226 -112q39 -18 127 -58t135 -62q12 68 13 153h307 q0 -178 -39 -303zM522 1024q0 -86 64 -160q14 2 45 2q172 0 238.5 36t66.5 122q0 102 -53.5 133t-159.5 31q-100 0 -151.5 -31t-51.5 -133h2zM750 233q172 0 268 62q-45 25 -133 69t-142.5 71.5t-124 68.5t-122.5 78q-33 -43 -33 -150q0 -109 75 -154t212 -45z" glyph-name="ampersand" horiz-adv-x="1765" unicode="&amp;"/><glyph d="M129 1434h303l-20 -566h-262z" glyph-name="quotesingle" horiz-adv-x="561" unicode="'"/><glyph d="M457 545v-4q0 -459 147 -885h-266q-113 152 -171 394.5t-58 490.5v4v2v4q0 248 58 490.5t171 394.5h266q-147 -426 -147 -885v-4v-2z" glyph-name="parenleft" horiz-adv-x="698" unicode="("/><glyph d="M362 1436q113 -152 171.5 -394.5t58.5 -490.5v-4v-2v-4q0 -248 -58.5 -491t-171.5 -394h-266q147 426 148 885v4v2v4q0 459 -148 885h266z" glyph-name="parenright" horiz-adv-x="698" unicode=")"/><glyph d="M846 1184l-103 -176l-168 104l9 -197h-205l8 197l-168 -104l-102 176l176 92l-174 92l102 178l166 -104l-8 196h205l-9 -196l166 104l103 -178l-174 -92z" glyph-name="asterisk" horiz-adv-x="962" unicode="*"/><glyph d="M1518 721v-266h-543v-410h-307v410h-543v266h543v409h307v-409h543z" glyph-name="plus" horiz-adv-x="1642" unicode="+"/><glyph d="M223 221h307l-182 -463h-215z" glyph-name="comma" horiz-adv-x="641" unicode=","/><glyph d="M1147 465h-1065v266h1065v-266z" glyph-name="hyphen" horiz-adv-x="1228" unicode="-"/><glyph d="M309.5 -2q-100.5 0 -142.5 37t-42 127q0 86 43 125t141.5 39t141.5 -39t43 -125q0 -90 -42 -127t-142.5 -37z" glyph-name="period" horiz-adv-x="618" unicode="."/><glyph d="M1221 1546l-875 -1904h-328l875 1904h328z" glyph-name="slash" horiz-adv-x="1239" unicode="/"/><glyph d="M1735 707q0 -172 -36 -299t-124 -230.5t-254 -157t-407.5 -53.5t-405.5 53.5t-252 157t-124 230.5t-36 299q0 137 21.5 244.5t77 206.5t145.5 165t235.5 104.5t337.5 38.5q242 0 408 -56t254 -164.5t124 -236.5t36 -302zM922 274q106 0 179 8.5t123 34t77.5 53t43 86 t18.5 112t3 149.5v8v90t-3 76t-9 67.5t-17.5 54.5t-28 48t-41 35.5t-58 30t-78 17.5t-98.5 12t-124 3q-106 0 -179 -9t-123 -36t-77.5 -56.5t-43 -90t-18.5 -116.5t-3 -155q0 -209 24 -274q39 -102 191 -131q90 -17 242 -17z" glyph-name="zero" unicode="0"/><glyph d="M543 1434h348v-1434h-348v915q-154 -55 -369 -55h-102v297q197 0 299 30t137 85.5t35 161.5z" glyph-name="one" horiz-adv-x="1052" unicode="1"/><glyph d="M805 287h860v-287h-1577v164q53 35 278.5 162t408.5 234.5t341 243.5t158 224q0 80 -94.5 116t-302.5 36q-109 0 -174.5 -5.5t-134 -25t-100.5 -62.5t-32 -112h-348q0 84 17.5 151.5t66.5 133t130 109.5t217 70.5t321 26.5q188 0 332.5 -27.5t227.5 -71.5t136 -104.5 t70.5 -118t17.5 -120.5q0 -182 -205.5 -357t-613.5 -380z" glyph-name="two" horiz-adv-x="1759" unicode="2"/><glyph d="M1444 739q199 -86 198 -321q0 -76 -17 -136.5t-67.5 -121t-134.5 -101.5t-225 -66.5t-332 -25.5q-238 0 -397.5 37t-239 108.5t-110.5 153.5t-31 193h348q0 -55 20.5 -92t49.5 -57.5t86 -31t103 -12.5t130 -2q281 0 346 17q109 25 121 118q2 16 2 35q0 39 -8 66.5 t-31.5 45t-45 27t-70.5 13.5t-83 5t-108 1h-364v266h364q201 0 250 19q76 27 76 131q0 80 -49 115.5t-116 41.5t-237 6h-49q-82 0 -128 -2t-103 -12t-86 -30.5t-49.5 -57.5t-20.5 -92h-348q0 86 17.5 153.5t67.5 133t133 108.5t222.5 69.5t327.5 26.5q186 0 326.5 -25.5 t222.5 -65.5t132 -98t67.5 -115.5t17.5 -125.5q0 -92 -39 -164t-139 -135z" glyph-name="three" horiz-adv-x="1742" unicode="3"/><glyph d="M1729 635v-277h-269v-362h-348v362h-1042v164l374 912h390l-336 -799h614v532h348v-532h269z" glyph-name="four" horiz-adv-x="1796" unicode="4"/><glyph d="M1128 930q555 0 555 -471q0 -90 -15 -155.5t-64.5 -133.5t-135.5 -109t-233.5 -67.5t-349.5 -26.5q-190 0 -332.5 25.5t-226.5 66.5t-134.5 101.5t-68 121t-17.5 136.5h369q0 -106 77 -130t310 -24h23q287 0 352 19q80 23 94 106q4 29 4 70q0 125 -88 164t-327 39 q-156 0 -255.5 -28t-228.5 -104h-268v904h1434v-297h-1086v-299q221 92 612 92z" glyph-name="five" horiz-adv-x="1775" unicode="5"/><glyph d="M1016 950q211 0 353 -35.5t216 -106.5t102.5 -152t28.5 -191q0 -115 -30.5 -197t-112.5 -154.5t-243 -109.5t-402 -37q-131 0 -240.5 12.5t-188.5 30t-140.5 49t-101.5 59t-67.5 68.5t-41 71t-20.5 74t-8 66.5t-1 61.5v516q0 49 2 79.5t17.5 88t43 95.5t87 85t142.5 75.5 t213 48t296 19.5q190 0 333.5 -25.5t226.5 -65.5t134 -100.5t68.5 -119.5t17.5 -131h-352q0 102 -80 123.5t-342 21.5h-52q-250 0 -328.5 -30.5t-78.5 -163.5v-172q139 147 549 147zM924 264h18q98 0 140 1t103.5 6t86 16.5t52.5 33t36 54.5t8 82q0 96 -53 140t-123 51 t-252 5h-22q-260 -4 -355.5 -48t-95.5 -163q0 -45 8 -74.5t37 -50t54.5 -31t91 -15.5t113 -6t153.5 -1z" glyph-name="six" horiz-adv-x="1814" unicode="6"/><glyph d="M70 1434h1597v-164l-846 -1270h-409l764 1147h-1106v287z" glyph-name="seven" horiz-adv-x="1730" unicode="7"/><glyph d="M1579 739q199 -123 199 -321q0 -76 -17.5 -136.5t-72 -121t-144.5 -101.5t-243.5 -66.5t-362.5 -25.5t-362.5 25.5t-243.5 66.5t-144.5 101.5t-72 121t-17.5 136.5q0 201 195 321q-174 111 -174 279q0 76 17.5 136t70.5 120.5t140 101.5t237.5 66.5t353.5 25.5 t353.5 -25.5t237.5 -66.5t140 -101.5t70.5 -120.5t17.5 -136q0 -168 -178 -279zM938 1171h-49q-86 0 -126 -1t-99.5 -4t-87 -13t-57.5 -26.5t-41 -43t-11 -65.5q0 -35 11 -60.5t44 -42t60.5 -25.5t92 -12.5t105.5 -4.5t131 -1h22.5h22.5q90 0 133.5 1t108 4.5t93 12.5 t61 25.5t45 42t12.5 60.5q0 55 -23.5 88t-92 47t-124 16t-182.5 2h-49zM938 264h49q86 0 127 1t104.5 4t92 13.5t61.5 27t45.5 43t12.5 65.5q0 47 -14.5 79.5t-50.5 53t-68.5 32t-101.5 16.5t-114 6t-137 1h-10h-8h-106t-90 -2t-84 -7t-66.5 -14.5t-58 -22.5t-40 -32.5 t-28 -47t-7.5 -62.5q0 -55 27 -89t99.5 -47.5t130 -15.5t186.5 -2h49z" glyph-name="eight" horiz-adv-x="1875" unicode="8"/><glyph d="M766 485q-211 0 -353.5 36t-216 106.5t-102 151.5t-28.5 192q0 115 30.5 196.5t112.5 154.5t242.5 109.5t402.5 36.5q131 0 240.5 -12t188.5 -29.5t140.5 -49t101.5 -59.5t67.5 -69t41 -70.5t20.5 -73.5t8 -66.5t1 -61.5v-516q0 -49 -2 -80t-17.5 -88t-43 -95t-87 -85 t-142.5 -76t-213 -48.5t-296 -19.5q-190 0 -333.5 25.5t-226.5 65.5t-134 100.5t-68.5 120t-17.5 131.5h352q0 -102 80 -124t342 -22h51q250 0 329 31t79 164v172q-139 -148 -549 -148zM858 1171h-18q-98 0 -140.5 -1t-103.5 -6t-86 -16t-52.5 -32.5t-35.5 -54.5t-8 -82 q0 -96 53 -140t122.5 -51.5t252.5 -5.5h22q260 4 355.5 48t95.5 163q0 45 -8.5 75t-37 50.5t-54 30.5t-91 15t-113 6t-153.5 1z" glyph-name="nine" horiz-adv-x="1814" unicode="9"/><glyph d="M331.5 778q-100.5 0 -142.5 37t-42 127q0 86 43 125t141.5 39t141.5 -39t43 -125q0 -90 -42 -127t-142.5 -37zM331.5 39q-100.5 0 -142.5 37t-42 127q0 86 43 125t141.5 39t141.5 -39t43 -125q0 -90 -42 -127t-142.5 -37z" glyph-name="colon" horiz-adv-x="663" unicode=":"/><glyph d="M376.5 778q-100.5 0 -142 37t-41.5 127q0 86 43 125t141 39t141 -39t43 -125q0 -90 -42 -127t-142.5 -37zM219 221h307l-182 -463h-215z" glyph-name="semicolon" horiz-adv-x="694" unicode=";"/><glyph d="M1354 1192v-307l-879 -277l879 -276v-307l-1250 436v295z" glyph-name="less" horiz-adv-x="1544" unicode="&lt;"/><glyph d="M1462 694h-1269v256h1269v-256zM1462 213h-1269v254h1269v-254z" glyph-name="equal" horiz-adv-x="1654" unicode="="/><glyph d="M170 1192l1249 -436v-295l-1249 -436v307l879 276l-879 277v307z" glyph-name="greater" horiz-adv-x="1544" unicode=">"/><glyph d="M934 1466q203 0 353.5 -25.5t237.5 -66.5t140 -102.5t70.5 -123t17.5 -138.5q0 -121 -42 -206t-120 -132t-174 -68.5t-219 -21.5q-135 -2 -190.5 -26t-55.5 -110h-348q0 104 25.5 178t69.5 119t118 71t153 35t191 9q137 0 190.5 25.5t53.5 126.5q0 121 -74 145.5 t-340 24.5h-57q-94 0 -145.5 -1t-114 -5.5t-92 -12.5t-62.5 -22.5t-46 -37t-22.5 -53t-9.5 -73.5h-348q0 88 17.5 155.5t72 133t144.5 108.5t243.5 68.5t362.5 25.5zM780.5 326q98.5 0 141.5 -39t43 -125q0 -90 -42 -127t-142.5 -37t-142.5 37t-42 127q0 86 43 125t141.5 39 z" glyph-name="question" horiz-adv-x="1859" unicode="?"/><glyph d="M1253 1434q522 0 821.5 -230.5t299.5 -603.5q0 -240 -89.5 -341t-299.5 -101q-135 0 -212 29.5t-114 99.5q-113 -121 -500 -121q-160 0 -263 27.5t-154.5 84t-70 121t-18.5 160.5t17.5 160.5t66.5 121t147.5 84t248.5 27.5q342 0 460 -112v94h254v-408q0 -154 131 -153 q74 0 103.5 38t29.5 140v2q0 338 -216 494.5t-640 156.5q-420 0 -629.5 -155.5t-209.5 -493.5q0 -340 210 -478t631 -138q301 0 496 71l152 -170q-266 -131 -648 -131q-289 0 -511 74t-353 200t-196.5 279.5t-65.5 327.5q0 172 65.5 320.5t196.5 267t351 187.5t509 69z M1610 553v12q0 90 -95.5 134t-322.5 44q-68 0 -102.5 -2t-76.5 -11t-61.5 -28.5t-33 -54.5t-13.5 -88t13.5 -88t33 -54.5t61.5 -28.5t76.5 -11t102.5 -2q227 0 322.5 44t95.5 134z" glyph-name="at" horiz-adv-x="2500" unicode="@"/><glyph d="M1561 0l-142 287h-817l-141 -287h-400l756 1434h389l754 -1434h-399zM743 573h535l-266 543z" glyph-name="A" horiz-adv-x="2041" unicode="A"/><glyph d="M1741 727q90 -47 132 -140t42 -190q0 -68 -25.5 -132t-84 -127.5t-177.5 -101.5t-285 -38l-1173 2v1434h1120q154 0 266.5 -31t172 -75t94.5 -107.5t43 -111.5t8 -105q0 -78 -36 -154t-97 -123zM1401 860q84 0 114.5 27.5t30.5 118.5q0 86 -30.5 113.5t-114.5 27.5 l-883 2v-291zM1401 287q82 0 113.5 24.5t31.5 100.5q0 100 -30.5 130.5t-114.5 30.5l-883 2v-290z" glyph-name="B" horiz-adv-x="2017" unicode="B"/><glyph d="M1028 276q283 0 384 60.5t101 241.5h367q-16 -195 -47 -277q-102 -256 -518 -313q-133 -18 -299 -19q-213 0 -375 38t-262 102.5t-163.5 161t-88.5 203t-25 239.5v4v2v2v4q0 133 25 239.5t88.5 203t163.5 161t262 102t375 37.5q162 0 293 -23.5t217 -58t151.5 -90 t100 -104.5t58.5 -116.5t31 -111.5t13 -104h-367q0 176 -102 238.5t-383 62.5q-143 0 -227 -8t-157 -32.5t-107.5 -74t-54 -128t-19.5 -199.5t19.5 -200t54 -128t107.5 -73.5t157 -33t227 -8.5z" glyph-name="C" horiz-adv-x="1982" unicode="C"/><glyph d="M723 1434h86q74 -2 150.5 0t154.5 -5.5t152.5 -17.5t146.5 -36.5t133.5 -61.5t113.5 -91.5t89 -128t57.5 -171t20.5 -220.5q0 -147 -34 -262.5t-92.5 -188.5t-137 -125t-169.5 -74.5t-190.5 -38t-199 -13.5t-195.5 0h-90h-549v1434h553zM825 307h76q154 0 218.5 1 t149.5 13.5t110.5 34t57 68.5t37 110.5t5.5 167.5q0 113 -5.5 180.5t-38 119t-56 74t-111.5 35.5t-149.5 14t-219.5 1h-72h-309v-819h307z" glyph-name="D" horiz-adv-x="1927" unicode="D"/><glyph d="M518 297h1174v-297h-1522v1434h1495v-297h-1147v-258h1065v-287h-1065v-295z" glyph-name="E" horiz-adv-x="1808" unicode="E"/><glyph d="M1583 1126h-1065v-280h963v-297h-963v-549h-348v1434h1413v-308z" glyph-name="F" horiz-adv-x="1673" unicode="F"/><glyph d="M741 831h1133q14 -129 14 -311q0 -285 -211 -417t-651 -134q-266 0 -452.5 55.5t-287 161t-142.5 232.5t-42 295v4v2v6q0 168 42 295t140.5 231.5t282 159.5t449.5 55q399 -2 619 -139t220 -375h-378q-12 115 -120 164t-329 49q-135 0 -218 -8t-156.5 -33.5t-111.5 -75 t-58.5 -129t-20.5 -200.5t19.5 -200t53 -128t107.5 -73.5t158 -33t225 -8.5q303 0 413.5 56.5t123.5 222.5h-822v276z" glyph-name="G" horiz-adv-x="1996" unicode="G"/><glyph d="M1419 1434h348v-1434h-348v563h-901v-563h-348v1434h348v-564h901v564z" glyph-name="H" horiz-adv-x="1937" unicode="H"/><glyph d="M170 1434h348v-1434h-348v1434z" glyph-name="I" horiz-adv-x="688" unicode="I"/><glyph d="M1610 1434l-4 -861q0 -115 -15.5 -197.5t-62.5 -164.5t-129 -132t-220.5 -81t-330.5 -31q-236 0 -389.5 39t-234.5 122t-110.5 186.5t-29.5 258.5h369q0 -104 20.5 -164.5t75.5 -90t117.5 -37t181.5 -7.5q223 0 306 54.5t83 244.5l2 553h-1040v308h1411z" glyph-name="J" horiz-adv-x="1753" unicode="J"/><glyph d="M1823 -2h-461l-473 586l-369 -340l-2 2v-246h-348v1434h348v-750l803 750h491l-663 -613z" glyph-name="K" horiz-adv-x="1890" unicode="K"/><glyph d="M518 307h1024v-307h-1372v1434h348v-1127z" glyph-name="L" horiz-adv-x="1622" unicode="L"/><glyph d="M2198 1434v-1434h-349l21 901l-492 -901h-389l-491 901l20 -901h-348v1434h389l625 -1096l624 1096h390z" glyph-name="M" horiz-adv-x="2367" unicode="M"/><glyph d="M1460 1434h348v-1434h-389l-921 1010l20 -1010h-348v1434h389l922 -1016z" glyph-name="N" horiz-adv-x="1978" unicode="N"/><glyph d="M2011 706.5q0 -139.5 -22.5 -244t-84 -201.5t-167 -158.5t-276.5 -98.5t-406 -37q-233 0 -404.5 37t-276 98.5t-166 158.5t-84 201.5t-22.5 244t22.5 246t84 207t166 165t275.5 103t404.5 38.5t406.5 -38.5t276.5 -103t166 -165t85 -207t22.5 -246zM1063 274 q141 0 236.5 8.5t161 34t101 53t54 86t22.5 112t4 149.5v6q0 61 -1 90t-4 77t-10 68.5t-22.5 54.5t-37 48t-53 35.5t-74.5 29t-100.5 17.5t-128 13t-160.5 3q-94 0 -167 -5t-131.5 -13t-100.5 -26.5t-72.5 -35t-50 -49.5t-32 -61.5t-17.5 -76.5t-7 -89t-2 -107v-6 q0 -141 9 -198.5t64.5 -120t176.5 -80t342 -17.5z" glyph-name="O" horiz-adv-x="2113" unicode="O"/><glyph d="M983 1434q152 0 272.5 -18.5t201.5 -47.5t140.5 -75t92 -89t51 -100t23.5 -101.5t8 -99.5q-2 -55 -7.5 -99t-24 -101.5t-51 -100.5t-92 -89t-140.5 -74.5t-201.5 -47t-272.5 -18.5h-465v-373h-348v1434h813zM1065 680q154 0 225.5 21.5t92 64.5t20.5 137t-20.5 137 t-92 64.5t-225.5 21.5l-547 2v-450z" glyph-name="P" horiz-adv-x="1859" unicode="P"/><glyph d="M2011 707q0 -256 -91 -423t-331 -247l142 -219h-349l-102 159q-117 -10 -225 -10q-233 0 -404.5 37t-276 98.5t-166 158.5t-84 201.5t-22.5 244t22.5 246t84 207t166 165t275.5 103t404.5 38.5t406.5 -38.5t276.5 -103t166 -165t85 -207t22.5 -245.5zM1642 717v6 q0 61 -1 90t-4 77t-10 68.5t-22.5 54.5t-37 48t-53 35.5t-74.5 29t-100.5 17.5t-128 13t-160.5 3q-94 0 -167 -5t-131.5 -13t-100.5 -26.5t-72.5 -35t-50 -49.5t-32 -61.5t-17.5 -76.5t-7 -89t-2 -107v-6q0 -141 9 -198.5t64.5 -120t176.5 -80t342 -17.5h24l-135 209h348 l117 -180q147 35 186 123t39 291z" glyph-name="Q" horiz-adv-x="2113" unicode="Q"/><glyph d="M1647 578q180 -76 186 -271v-307h-369v307q0 68 -55 108t-221 40h-72h-31h-567v-455h-348v1434h915q197 0 341.5 -35t219 -84t119.5 -123t55.5 -127t12.5 -121q-4 -247 -186 -366zM518 1128v-368l670 2q170 0 223 43t53 139t-53 139t-223 43z" glyph-name="R" horiz-adv-x="1961" unicode="R"/><glyph d="M494 1024q0 -37 19 -61.5t61 -40t91.5 -24.5t123 -14t141 -8.5t164 -8.5t174.5 -13q82 -8 146.5 -18.5t149.5 -40t141 -72.5t96 -118t40 -171q0 -254 -247.5 -368.5t-684.5 -92.5q-434 23 -626.5 153t-192.5 357l371 -6q14 -113 125.5 -155.5t328.5 -51.5 q152 -6 262.5 2.5t165 22.5t85 38.5t35.5 39t7 35.5q2 33 -18 56t-63 38.5t-94.5 25t-123 15.5t-134 9t-143.5 8t-138 11q-631 66 -631 428q0 215 210 345.5t634 119.5q420 -10 615.5 -144t195.5 -345h-369q-12 106 -115.5 150t-351.5 49q-244 2 -347 -35t-103 -115z" glyph-name="S" horiz-adv-x="1931" unicode="S"/><glyph d="M1718 1434v-308h-645v-1126h-348v1126h-645v308h1638z" glyph-name="T" horiz-adv-x="1798" unicode="T"/><glyph d="M1806 518q-2 -119 -41 -212t-128 -173t-257 -123t-407 -43q-238 0 -405 43t-256 123t-128 173t-41 212v916h369v-897q0 -96 33 -148.5t136 -83.5t300 -31q258 0 356.5 60.5t100.5 202.5v897h368v-916z" glyph-name="U" horiz-adv-x="1949" unicode="U"/><glyph d="M961 379l464 1055h430l-700 -1434h-389l-703 1434h431z" glyph-name="V" horiz-adv-x="1918" unicode="V"/><glyph d="M2329 1432h430l-514 -1432h-390l-442 1012l-442 -1012h-389l-514 1432h430l293 -1010l430 969h385l430 -990z" glyph-name="W" horiz-adv-x="2826" unicode="W"/><glyph d="M1958 1434l-707 -727l686 -707h-430l-503 518l-492 -524h-451l725 745l-673 695h430l491 -504l473 504h451z" glyph-name="X" horiz-adv-x="2023" unicode="X"/><glyph d="M1808 1434l-700 -908v-526h-348v524l-703 910h430l447 -613l444 613h430z" glyph-name="Y" horiz-adv-x="1865" unicode="Y"/><glyph d="M700 287h1041v-287h-1639v164l981 983h-968v287h1597v-164z" glyph-name="Z" horiz-adv-x="1839" unicode="Z"/><glyph d="M737 1167h-243v-1167h243v-266h-571v1700h571v-267z" glyph-name="bracketleft" horiz-adv-x="833" unicode="["/><glyph d="M-45 1546h328l874 -1904h-328z" glyph-name="backslash" horiz-adv-x="1239" unicode="\"/><glyph d="M96 1167v267h572v-1700h-572v266h244v1167h-244z" glyph-name="bracketright" horiz-adv-x="833" unicode="]"/><glyph d="M963 758h-287l-133 395l-133 -395h-287l252 614h336z" glyph-name="asciicircum" horiz-adv-x="1085" unicode="^"/><glyph d="M1516 -340h-1434v266h1434v-266z" glyph-name="underscore" horiz-adv-x="1597" unicode="_"/><glyph d="M1417 1024h348v-1024h-348v121q-166 -154 -635 -154q-182 0 -313 26.5t-209 71t-122 117t-58 147t-14 179t14 179.5t58 147.5t122 116.5t209 71t313 27q252 0 400.5 -37t234.5 -117v129zM864 254q313 0 443.5 60.5t130.5 185.5v16q0 125 -130 185.5t-444 60.5 q-113 0 -169 -3t-121.5 -15.5t-93 -39t-47 -74.5t-19.5 -122t19.5 -122t47 -74.5t93 -39t121.5 -15.5t169 -3z" glyph-name="a" horiz-adv-x="1884" unicode="a"/><glyph d="M1124 1049q182 0 313.5 -27t209 -71t121.5 -116.5t58.5 -147.5t14.5 -179.5t-14.5 -179t-59.5 -147t-124.5 -115.5t-215 -71t-323.5 -28q-406 0 -615 131v-98h-348v1536h348v-623q213 136 635 136zM1042 254q113 0 169.5 3t122 15.5t93 39t47 74.5t19.5 122t-19.5 122 t-46 73.5t-90 39t-116 15.5t-158.5 2q-231 0 -362.5 -30t-176.5 -80t-45 -134v-16q0 -84 45 -135.5t171 -81t347 -29.5z" glyph-name="b" horiz-adv-x="1906" unicode="b"/><glyph d="M920 254q309 0 410.5 26.5t101.5 137.5h348q0 -76 -17.5 -135.5t-73 -121t-148.5 -102.5t-252 -66.5t-376 -25.5q-477 0 -665.5 126t-188.5 409q0 197 74 313.5t262.5 177t515.5 60.5q217 0 377 -26t253 -65.5t148.5 -101t73 -122t17.5 -136.5h-348q0 39 -10.5 66.5 t-42 46t-62.5 28t-100.5 14.5t-127 6t-170 1t-169 -1t-127 -7t-101 -18.5t-62.5 -35t-42 -57.5t-10 -84v-102q0 -49 10 -84t40.5 -57.5t62.5 -36t101.5 -19.5t128 -7t169.5 -1z" glyph-name="c" horiz-adv-x="1744" unicode="c"/><glyph d="M1417 1536h348v-1536h-348v98q-209 -131 -614 -131q-188 0 -323.5 28t-215.5 71t-125 115.5t-59 147t-14 179t14 179.5t58 147.5t122 116.5t209 71t313 27q422 0 635 -136v623zM864 254q221 0 347 29.5t171 81t45 135.5v16q0 84 -45 134t-176 80t-362 30 q-106 0 -158.5 -2t-116 -15.5t-90 -39t-46 -73.5t-19.5 -122t19.5 -122t47 -74.5t93 -39t121.5 -15.5t169 -3z" glyph-name="d" horiz-adv-x="1906" unicode="d"/><glyph d="M1759 516q0 -63 -4 -88h-1345q0 -113 136 -154t394 -41q139 0 232.5 9.5t137.5 26t60 31.5t23 36h342q2 -72 -31 -132.5t-113 -116.5t-235.5 -88t-374.5 -32q-352 0 -555 57.5t-285 171t-82 306.5q0 301 186.5 426t653.5 125q209 0 365.5 -29t250 -76t149.5 -118.5 t75.5 -145.5t19.5 -168zM897 797q-125 0 -197.5 -4.5t-147.5 -20.5t-108.5 -53t-33.5 -96h999q0 49 -24.5 81.5t-62.5 50t-109.5 28t-138 12.5t-177.5 2z" glyph-name="e" horiz-adv-x="1818" unicode="e"/><glyph d="M1212 1280q-180 -6 -284.5 -59.5t-104.5 -190.5v-6h615v-276h-615v-748h-348v748h-430v276h430q0 117 43 209t111.5 147.5t163 92t188.5 50t197 13.5q195 0 297 -14v-250q-107 14 -263 8z" glyph-name="f" horiz-adv-x="1519" unicode="f"/><glyph d="M1792 213q0 -362 -206 -522t-668 -160q-197 0 -339.5 23.5t-219 58.5t-123 90t-59.5 99t-19 108h340q25 -80 110.5 -96.5t337.5 -16.5q279 0 387.5 80t108.5 264q-84 -94 -227.5 -134t-387.5 -40q-215 0 -365.5 39t-234.5 113t-120.5 168t-36.5 221q0 106 14 180 t60 146.5t128 116.5t221.5 71t333.5 27q418 0 615 -113v88h348zM1452 500v16q0 147 -107.5 195.5t-435.5 48.5q-80 0 -123 -1t-101 -4t-87 -9.5t-65.5 -18.5t-53 -30.5t-34 -45t-22.5 -61.5t-5 -82q0 -61 10 -104.5t41 -72t60.5 -44t97 -22.5t122 -9t160.5 -2 q326 0 434.5 48t108.5 198z" glyph-name="g" horiz-adv-x="1916" unicode="g"/><glyph d="M1118 1049q344 0 493.5 -126t149.5 -454v-469h-348l-2 514q0 168 -81 203t-353 35h-57q-203 0 -315.5 -70t-112.5 -207v-475h-349v1536h349v-655q214 168 626 168z" glyph-name="h" horiz-adv-x="1853" unicode="h"/><glyph d="M321.5 1188q-102.5 0 -143.5 36t-41 128q0 86 42 125t142.5 39t142.5 -39t42 -125q0 -92 -41 -128t-143.5 -36zM147 1024h349v-1024h-349v1024z" glyph-name="i" horiz-adv-x="591" unicode="i"/><glyph d="M333.5 1188q-102.5 0 -143 36t-40.5 128q0 86 41.5 125t142 39t142.5 -39t42 -125q0 -92 -41 -128t-143.5 -36zM160 1024h348v-1466h-348v1466z" glyph-name="j" horiz-adv-x="667" unicode="j"/><glyph d="M1741 0h-471l-463 473l-315 -211v-262h-349v1534h349v-946l626 436l512 -2l-551 -369z" glyph-name="k" horiz-adv-x="1759" unicode="k"/><glyph d="M143 1534h349v-1534h-349v1534z" glyph-name="l" horiz-adv-x="634" unicode="l"/><glyph d="M1976 1049q307 0 465 -123t158 -416v-510h-348l-2 506q0 158 -78 205t-256 47q-78 0 -130 -4t-104.5 -19.5t-81 -42t-47 -73t-18.5 -113.5v-506h-348l-2 506q0 158 -79 205t-269 47q-176 0 -271.5 -75t-95.5 -259v-424h-348v1024h348v-168q70 72 193.5 132.5t287.5 60.5 q352 0 490 -187l-2 6q221 181 538 181z" glyph-name="m" horiz-adv-x="2691" unicode="m"/><glyph d="M1065 1049q344 0 509 -121t165 -418v-510h-348l-2 506q0 162 -95.5 207t-371.5 45q-252 0 -352.5 -46t-100.5 -206v-506h-348v1024h348v-102q94 61 226 94t370 33z" glyph-name="n" unicode="n"/><glyph d="M918 1053q481 0 671.5 -124t190.5 -417q0 -197 -79 -313.5t-267.5 -174t-514 -57.5t-514 57.5t-267.5 173t-79 312.5q0 299 194 421t665 122zM1432 459v102q0 49 -10.5 84t-41 57.5t-62.5 36t-101.5 19.5t-128 7t-169 1t-169 -1t-128 -7t-101.5 -19.5t-62.5 -36 t-40.5 -57.5t-10 -84v-102q0 -49 10 -84t40.5 -57.5t62.5 -36t101.5 -19.5t128 -7t169 -1t169 1t128 7t101.5 19.5t62.5 36t41 57.5t10.5 84z" glyph-name="o" horiz-adv-x="1839" unicode="o"/><glyph d="M1104 1057q188 0 323.5 -28t215 -71t124.5 -115.5t59.5 -147t14.5 -179t-14.5 -179.5t-58.5 -147.5t-121.5 -116.5t-208.5 -71t-314 -27q-422 0 -635 136v-623h-348v1536h348v-98q209 131 615 131zM1063 264q106 0 158.5 2t116 15.5t90 39t46 73.5t19.5 122t-19.5 122 t-47 74.5t-93 39t-122 15.5t-169.5 3q-221 0 -347 -29.5t-171 -81t-45 -135.5v-16q0 -84 45 -134t176.5 -80t362.5 -30z" glyph-name="p" horiz-adv-x="1906" unicode="p"/><glyph d="M1417 1024h348v-1536h-348v623q-213 -135 -635 -136q-182 0 -313 27t-209 71t-122 116.5t-58 147.5t-14 179.5t14 179t59 147t125 115.5t215 71t324 28q406 0 614 -131v98zM844 264q231 0 362 30t176 80t45 134v16q0 84 -45 135.5t-171 81t-347 29.5q-113 0 -169 -3 t-121.5 -15.5t-93 -39t-47 -74.5t-19.5 -122t19.5 -122t46 -73.5t90 -39t116 -15.5t158.5 -2z" glyph-name="q" horiz-adv-x="1906" unicode="q"/><glyph d="M469 858q88 98 249 142t429 44v-307q-119 0 -197 -3t-163 -14t-137 -33.5t-97 -58.5t-64.5 -92.5t-19.5 -132.5v-403h-348v1024h348v-166z" glyph-name="r" horiz-adv-x="1196" unicode="r"/><glyph d="M1765 295q0 -102 -68.5 -169t-252.5 -106.5t-494 -39.5q-221 0 -380.5 22.5t-248 55t-142.5 88t-71.5 99.5t-31.5 111h338q106 -117 569 -116q246 0 349.5 14t103.5 47q0 53 -124 72.5t-358 27.5q-82 2 -133 4.5t-132 8.5t-134 12t-123 19.5t-115 28.5t-94 40t-76.5 53.5 t-46 68.5t-18.5 87q0 102 66.5 170t245.5 109.5t476 41.5q223 0 382 -20t245 -51t133 -81t59.5 -92t12.5 -104h-338q-35 57 -149.5 77t-387.5 20q-420 0 -419 -68q0 -41 114.5 -58.5t339.5 -29.5q53 -2 80 -4q41 -2 126 -6t131 -7.5t122 -9.5t121 -16t103.5 -26.5t92 -41 t66.5 -56.5t47 -76t14 -99z" glyph-name="s" horiz-adv-x="1812" unicode="s"/><glyph d="M1354 389h338q-14 -98 -46 -162.5t-104 -120t-202 -81t-326 -25.5q-377 0 -527.5 105.5t-150.5 320.5v322h-291v276h291v512h348v-512h877v-276h-877v-328q0 -51 28.5 -84t87 -47.5t114 -18.5t141.5 -4q154 0 220.5 30t78.5 93z" glyph-name="t" horiz-adv-x="1726" unicode="t"/><glyph d="M1364 1024h348v-1024h-348v141q-8 -4 -66.5 -42t-88 -51t-94 -37.5t-144.5 -34t-180 -9.5q-176 0 -304.5 26.5t-203 69.5t-117.5 114t-57.5 143.5t-14.5 173.5v530h348v-530q0 -68 20.5 -112t53.5 -69.5t97.5 -39t127 -16.5t168.5 -3q84 0 149.5 6t113 20.5t81 28t54 42 t33 48t17.5 60.5t6 64.5t1 72.5v428z" glyph-name="u" unicode="u"/><glyph d="M891 297l455 727h411l-682 -1024h-368l-684 1024h411z" glyph-name="v" horiz-adv-x="1779" unicode="v"/><glyph d="M2064 1024h410l-444 -1022h-447l-332 592l-331 -592h-441l-450 1022h409l279 -735l360 694h348l361 -694z" glyph-name="w" horiz-adv-x="2502" unicode="w"/><glyph d="M1733 0h-471l-390 369l-389 -369h-440l569 508l-579 516h471l383 -362l385 362h440l-563 -504z" glyph-name="x" horiz-adv-x="1763" unicode="x"/><glyph d="M1343 1024h349v-862q0 -242 -79 -376t-262.5 -193.5t-514.5 -59.5q-680 0 -707 365h338q43 -109 401 -109q193 0 298.5 38t141 106.5t35.5 187.5q-49 -70 -202.5 -112t-349.5 -42q-170 0 -294 26.5t-197 69.5t-115 114t-56 143.5t-14 173.5v530h348v-530q0 -66 20.5 -111 t51 -70.5t90 -39t115 -16.5t149.5 -3q70 0 124 2t98 9t77 12.5t57.5 20.5t41 25.5t27.5 35t17 40t9 50t3 56v68.5v451z" glyph-name="y" horiz-adv-x="1822" unicode="y"/><glyph d="M637 242l1030 6v-248h-1597v164l876 618l-856 -4v246h1464v-164z" glyph-name="z" horiz-adv-x="1716" unicode="z"/><glyph d="M393 580v-13q78 -33 115 -94t37 -126.5t1 -135.5t5 -124t49 -90t133 -36v-266q-143 0 -239.5 31.5t-138.5 84t-63.5 120t-18.5 137t-3 137t-17 120t-58.5 84t-131.5 31.5v267q94 0 142.5 39.5t57.5 103t8 141.5t11.5 156t49.5 141.5t137 103.5t264 40v-267 q-88 0 -133 -33.5t-49 -86t-5 -120t-1 -131t-37 -122.5t-115 -92z" glyph-name="braceleft" horiz-adv-x="827" unicode="{"/><glyph d="M217 -266v1804h307v-1804h-307z" glyph-name="bar" horiz-adv-x="741" unicode="|"/><glyph d="M39 1165v267q164 0 264 -40t137 -103.5t49.5 -141.5t11.5 -156t8 -141.5t57 -103t143 -39.5v-267q-84 0 -131.5 -31.5t-58.5 -84t-17 -120t-3 -137t-18.5 -137t-63.5 -120t-138.5 -84t-239.5 -31.5v266q88 0 133 36t49 90t5 124t1 135.5t37 127t115 93.5v13 q-90 39 -125 114.5t-31 153.5t4 151.5t-42 119.5t-146 46z" glyph-name="braceright" horiz-adv-x="827" unicode="}"/><glyph d="M1176 725h245q0 -168 -96 -264t-258 -96q-137 0 -269 62t-243 62q-152 0 -178 -124h-246q0 152 111.5 257t287.5 105q129 0 265.5 -62.5t226.5 -62.5q74 0 114 32t40 91z" glyph-name="asciitilde" horiz-adv-x="1556" unicode="~"/><glyph d="M362.5 1155q100.5 0 142.5 -37t42 -127q0 -86 -43 -125t-141.5 -39t-141.5 39t-43 125q0 90 42 127t142.5 37zM205 -281l31 986h286l31 -986h-348z" glyph-name="exclamdown" horiz-adv-x="708" unicode="¡"/><glyph d="M1167 461q201 4 277 34.5t76 127.5h348q0 -88 -26.5 -156t-97.5 -133.5t-216.5 -106.5t-360.5 -51v-180h-317v180q-387 18 -545 144t-158 387q0 180 61.5 292.5t217.5 177t424 76.5v181h317v-181q215 -10 360.5 -51t216.5 -105.5t97.5 -132t26.5 -157.5h-348 q0 96 -75 127t-278 35v-508zM496 664q0 -121 75.5 -160t278.5 -43v508q-203 -4 -278.5 -43t-75.5 -160v-102z" glyph-name="cent" horiz-adv-x="2013" unicode="¢"/><glyph d="M735 287h1024v-287h-1577v164q4 2 38 21.5t56.5 35t60.5 42t64.5 55t53 65.5t42 81t17.5 91h-367v225h291q-78 127 -78 246q0 61 14.5 116.5t59.5 117t114.5 105.5t191.5 72.5t282 28.5q182 0 317.5 -42t209 -114.5t108.5 -155.5t35 -179h-334q-33 205 -328 205 q-137 0 -228 -42t-91 -134q0 -47 45 -122t55 -102h647v-225h-618q-15 -157 -105 -268z" glyph-name="sterling" horiz-adv-x="1904" unicode="£"/><glyph d="M1155 713q0 -109 -22 -193l192 -203l-182 -182l-201 195q-90 -25 -213 -25q-131 0 -213 27l-203 -197l-182 182l193 203q-23 84 -23 193q0 113 27 190l-2 -2l-195 205l182 182l203 -196q86 31 213 30q125 0 211 -30l203 196l182 -182l-195 -205l-2 2q27 -77 27 -190z M729 530q102 0 146.5 40t44.5 143q0 94 -45.5 139t-145.5 45q-102 0 -147 -45t-45 -139q0 -102 44 -142.5t148 -40.5z" glyph-name="currency" horiz-adv-x="1456" unicode="¤"/><glyph d="M1866 1434l-594 -715h375v-217h-482v-101h482v-217h-482v-184h-348v184h-481v217h481v101h-481v217h373l-594 715h430l446 -592l445 592h430z" glyph-name="yen" horiz-adv-x="1980" unicode="¥"/><glyph d="M217 825l-2 713h307l-2 -713h-303zM215 -252l2 713h303l2 -713h-307z" glyph-name="brokenbar" horiz-adv-x="737" unicode="¦"/><glyph d="M1565 328q152 -113 151 -258q0 -215 -221 -313.5t-616 -88.5q-356 8 -550 132t-188 325l332 -6q16 -176 410 -187q61 -4 147 0.5t164 12.5t132 36.5t56 75.5q2 66 -88 90q-78 23 -475 52q-45 4 -80 6q-256 16 -411.5 112.5t-155.5 264.5t160 264q-160 98 -160 264 q0 195 188.5 309.5t597.5 110.5q330 -2 516.5 -126t186.5 -310h-332q-12 88 -97 131t-323 45q-215 2 -310 -32t-95 -110q0 -70 102.5 -92t382.5 -39q133 -6 211 -12q516 -37 516 -383q1 -180 -151 -274zM504 598q0 -70 94 -90.5t381 -38.5q55 -4 84 -6q317 8 319 123 q0 18 -5 32.5t-19.5 26.5t-32.5 20.5t-51 15.5t-69 13t-89 11.5t-109.5 9.5t-134.5 10q-86 6 -133 10q-125 -16 -180 -47t-55 -90z" glyph-name="section" horiz-adv-x="1861" unicode="§"/><glyph d="M954 0q-213 0 -374.5 61.5t-256 167t-141.5 232.5t-47 270t46 266t141.5 222.5t256 157t371.5 57.5q219 0 384 -61.5t255 -167t133 -226.5t43 -260q0 -313 -208 -516t-603 -203zM954 176q315 0 470 120t155 402q0 287 -156.5 424.5t-470.5 137.5q-631 0 -630 -560 q0 -285 157.5 -404.5t474.5 -119.5zM954 498q152 0 203 28.5t51 118.5h183q-4 -39 -6.5 -57.5t-11.5 -56t-24.5 -58t-46 -48.5t-72.5 -42t-107.5 -25.5t-147.5 -11.5q-262 0 -363.5 95.5t-101.5 269.5q0 197 108.5 286.5t335.5 89.5q113 0 196 -22.5t126 -52t69.5 -75.5 t33.5 -77t12 -74h-183q0 90 -53 119t-211 29q-150 0 -203 -39t-53 -182q0 -137 54 -176t212 -39z" glyph-name="copyright" horiz-adv-x="1902" unicode="©"/><glyph d="M713 1024l-318 -369l318 -368h-336l-320 368l320 369h336zM1204 1024l-327 -369l327 -368h-348l-307 368l307 369h348z" glyph-name="guillemotleft" horiz-adv-x="1282" unicode="«"/><glyph d="M1360 721v-676h-266v418h-957v258h1223z" glyph-name="logicalnot" horiz-adv-x="1550" unicode="¬"/><glyph d="M612 1434q123 0 217.5 -39t148.5 -104.5t79.5 -142.5t25.5 -163q0 -193 -123.5 -320.5t-345.5 -127.5q-231 0 -353 134t-122 322.5t121 314.5t352 126zM612 653q344 0 344 322q0 172 -90 258t-253.5 86t-255 -86t-91.5 -258q0 -322 346 -322zM844 1051q4 -63 -49 -99 q49 -23 49 -71v-82h-107v82q0 39 -65 39h-164v-121h-107v383h244q189 0 199 -131zM508 1100v-99h164q41 0 53 11.5t12 38t-12 38t-53 11.5h-164z" glyph-name="registered" horiz-adv-x="1222" unicode="®"/><glyph d="M614 1434q473 0 473 -449q0 -201 -112.5 -324.5t-356.5 -123.5q-135 0 -231 37.5t-147.5 105.5t-74 144.5t-22.5 168.5q0 441 471 441zM616.5 756q147.5 0 191.5 47t44 176q0 131 -45 184.5t-190.5 53.5t-191.5 -53.5t-46 -184.5q0 -129 45 -176t192.5 -47z" glyph-name="degree" horiz-adv-x="1230" unicode="°"/><glyph d="M721 393v287h-563v246h563v266h266v-266h563v-246h-563v-287h-266zM164 266h1392v-266h-1392v266z" glyph-name="plusminus" horiz-adv-x="1714" unicode="±"/><glyph d="M592 1538h311v-1804h-307v907q-135 0 -231.5 38t-147.5 105.5t-73.5 144.5t-22.5 169q0 440 471 440zM1108 1538h307v-1804h-307v1804z" glyph-name="paragraph" horiz-adv-x="1632" unicode="¶"/><glyph d="M289 379q-88 0 -126 37t-38 127q0 86 39 125t125 39t125 -39t39 -125q0 -90 -38 -127t-126 -37z" glyph-name="periodcentered" horiz-adv-x="579" unicode="·"/><glyph d="M426 1024l307 -369l-307 -368h-348l328 368l-328 369h348zM905 1024l320 -369l-320 -368h-336l318 368l-318 369h336z" glyph-name="guillemotright" horiz-adv-x="1282" unicode="»"/><glyph d="M1016 819q-98 0 -141.5 39t-43.5 125q0 90 42 127t142.5 37t142.5 -37t42 -127q0 -86 -43 -125t-141 -39zM1354 170h348q0 -88 -17.5 -155.5t-71.5 -133t-144.5 -108.5t-244 -69t-362.5 -26q-203 0 -353.5 26t-237.5 67t-140 102t-70.5 122.5t-17.5 139.5q0 121 42 206 t120 132t174 68.5t219 21.5q135 2 190.5 25.5t55.5 109.5h348q0 -104 -25.5 -178t-69.5 -119t-118 -70.5t-152.5 -34.5t-191.5 -9q-137 0 -190.5 -25.5t-53.5 -126.5q0 -121 74 -145.5t340 -24.5h57q94 0 145.5 1t114 5t92 12.5t62.5 22.5t46 37t22.5 53.5t9.5 73.5z" glyph-name="questiondown" horiz-adv-x="1857" unicode="¿"/><glyph d="M1468 1890l-321 -293h-328l271 293h378zM1561 0l-142 287h-817l-141 -287h-400l756 1434h389l754 -1434h-399zM743 573h535l-266 543z" glyph-name="Aacute" horiz-adv-x="2041" unicode="Á"/><glyph d="M1016 1761l-207 -164h-389l411 310h369l412 -310h-389zM1561 0l-142 287h-817l-141 -287h-400l756 1434h389l754 -1434h-399zM743 573h535l-266 543z" glyph-name="Acircumflex" horiz-adv-x="2041" unicode="Â"/><glyph d="M813 1628q-119 0 -119 -84h-225q0 119 67.5 210t223.5 91q90 0 238.5 -47t207.5 -47q123 0 123 92h225q0 -53 -13 -101t-45 -95.5t-93.5 -75t-147.5 -27.5q-90 0 -235.5 42t-206.5 42zM1561 0l-142 287h-817l-141 -287h-400l756 1434h389l754 -1434h-399zM743 573h535 l-266 543z" glyph-name="Atilde" horiz-adv-x="2041" unicode="Ã"/><glyph d="M792.5 1548q-114.5 0 -159.5 36t-45 128q0 86 46 125t158.5 39t158.5 -39t46 -125q0 -92 -45 -128t-159.5 -36zM1384.5 1548q-114.5 0 -159.5 36t-45 128q0 86 46 125t158 39q111 0 158 -39t47 -125q0 -92 -45 -128t-159.5 -36zM1561 0l-142 287h-817l-141 -287h-400 l756 1434h389l754 -1434h-399zM743 573h535l-266 543z" glyph-name="Adieresis" horiz-adv-x="2041" unicode="Ä"/><glyph d="M1012 1516q-121 0 -197 73.5t-76 172t76 168t197 69.5q127 0 199.5 -73t72.5 -167q0 -102 -76.5 -172.5t-195.5 -70.5zM1012 1853q-72 0 -85.5 -18t-13.5 -80q0 -41 3.5 -56.5t25 -27.5t70.5 -12q68 0 83 18.5t15 79.5q0 63 -15 79.5t-83 16.5zM1561 0l-142 287h-817 l-141 -287h-400l756 1434h389l754 -1434h-399zM743 573h535l-266 543z" glyph-name="Aring" horiz-adv-x="2041" unicode="Å"/><glyph d="M1028 276q283 0 384 60.5t101 241.5h367q-16 -195 -47 -277q-100 -256 -516 -313q-113 -16 -250 -19l-35 -45q147 0 237.5 -55t90.5 -137q0 -90 -103.5 -162t-363.5 -72q-211 0 -315 31v203q111 -29 329 -29q197 0 197 43q0 37 -293 37h-160l133 199q-197 23 -333 87 t-209.5 164.5t-106.5 216t-33 263.5v4v2v2v4q0 133 25 239.5t88.5 203t163.5 161t262 102t375 37.5q162 0 293 -23.5t217 -58t151.5 -90t100 -104.5t58.5 -116.5t31 -111.5t13 -104h-367q0 176 -102 238.5t-383 62.5q-143 0 -227 -8t-157 -32.5t-107.5 -74t-54 -128 t-19.5 -199.5t19.5 -200t54 -128t107.5 -73.5t157 -33t227 -8.5z" glyph-name="Ccedilla" horiz-adv-x="1982" unicode="Ç"/><glyph d="M1386 1890l-321 -293h-328l271 293h378zM518 297h1174v-297h-1522v1434h1495v-297h-1147v-258h1065v-287h-1065v-295z" glyph-name="Eacute" horiz-adv-x="1808" unicode="É"/><glyph d="M934 1761l-207 -164h-389l412 310h368l412 -310h-389zM518 297h1174v-297h-1522v1434h1495v-297h-1147v-258h1065v-287h-1065v-295z" glyph-name="Ecircumflex" horiz-adv-x="1808" unicode="Ê"/><glyph d="M710.5 1548q-114.5 0 -159.5 36t-45 128q0 86 46 125t158.5 39t158.5 -39t46 -125q0 -92 -45 -128t-159.5 -36zM1302.5 1548q-114.5 0 -159.5 36t-45 128q0 86 47 125t157.5 39t157.5 -39t47 -125q0 -92 -45 -128t-159.5 -36zM518 297h1174v-297h-1522v1434h1495v-297 h-1147v-258h1065v-287h-1065v-295z" glyph-name="Edieresis" horiz-adv-x="1808" unicode="Ë"/><glyph d="M555 1890h379l-322 -293h-327zM303 1434h348v-1434h-348v1434z" glyph-name="Iacute" horiz-adv-x="827" unicode="Í"/><glyph d="M532 1907l412 -310h-389l-207 164l-207 -164h-389l412 310h368zM170 1434h348v-1434h-348v1434z" glyph-name="Icircumflex" horiz-adv-x="688" unicode="Î"/><glyph d="M4 1548q-115 0 -160 36t-45 128q0 86 47.5 125t158 39t157.5 -39t47 -125q0 -92 -45 -128t-160 -36zM596 1548q-115 0 -160 36t-45 128q0 86 46 125t159 39t159 -39t46 -125q0 -92 -45 -128t-160 -36zM170 1434h348v-1434h-348v1434z" glyph-name="Idieresis" horiz-adv-x="688" unicode="Ï"/><glyph d="M1307 1843h225q0 -53 -13.5 -101t-45 -95.5t-93 -75t-147.5 -27.5q-90 0 -235.5 42t-206.5 42q-119 0 -119 -84h-226q0 119 68 210t223 91q90 0 238.5 -47t208.5 -47q123 0 123 92zM1460 1434h348v-1434h-389l-921 1010l20 -1010h-348v1434h389l922 -1016z" glyph-name="Ntilde" horiz-adv-x="1978" unicode="Ñ"/><glyph d="M1135 1890h378l-321 -293h-328zM2011 706.5q0 -139.5 -22.5 -244t-84 -201.5t-167 -158.5t-276.5 -98.5t-406 -37q-233 0 -404.5 37t-276 98.5t-166 158.5t-84 201.5t-22.5 244t22.5 246t84 207t166 165t275.5 103t404.5 38.5t406.5 -38.5t276.5 -103t166 -165t85 -207 t22.5 -246zM1063 274q141 0 236.5 8.5t161 34t101 53t54 86t22.5 112t4 149.5v6q0 61 -1 90t-4 77t-10 68.5t-22.5 54.5t-37 48t-53 35.5t-74.5 29t-100.5 17.5t-128 13t-160.5 3q-94 0 -167 -5t-131.5 -13t-100.5 -26.5t-72.5 -35t-50 -49.5t-32 -61.5t-17.5 -76.5t-7 -89 t-2 -107v-6q0 -141 9 -198.5t64.5 -120t176.5 -80t342 -17.5z" glyph-name="Oacute" horiz-adv-x="2113" unicode="Ó"/><glyph d="M1245 1907l412 -310h-389l-207 164l-207 -164h-389l412 310h368zM2011 706.5q0 -139.5 -22.5 -244t-84 -201.5t-167 -158.5t-276.5 -98.5t-406 -37q-233 0 -404.5 37t-276 98.5t-166 158.5t-84 201.5t-22.5 244t22.5 246t84 207t166 165t275.5 103t404.5 38.5 t406.5 -38.5t276.5 -103t166 -165t85 -207t22.5 -246zM1063 274q141 0 236.5 8.5t161 34t101 53t54 86t22.5 112t4 149.5v6q0 61 -1 90t-4 77t-10 68.5t-22.5 54.5t-37 48t-53 35.5t-74.5 29t-100.5 17.5t-128 13t-160.5 3q-94 0 -167 -5t-131.5 -13t-100.5 -26.5t-72.5 -35 t-50 -49.5t-32 -61.5t-17.5 -76.5t-7 -89t-2 -107v-6q0 -141 9 -198.5t64.5 -120t176.5 -80t342 -17.5z" glyph-name="Ocircumflex" horiz-adv-x="2113" unicode="Ô"/><glyph d="M1374 1843h225q0 -53 -13 -101t-45 -95.5t-93.5 -75t-147.5 -27.5q-90 0 -235 42t-207 42q-119 0 -119 -84h-225q0 119 67.5 210t223.5 91q90 0 238.5 -47t207.5 -47q123 0 123 92zM2011 706.5q0 -139.5 -22.5 -244t-84 -201.5t-167 -158.5t-276.5 -98.5t-406 -37 q-233 0 -404.5 37t-276 98.5t-166 158.5t-84 201.5t-22.5 244t22.5 246t84 207t166 165t275.5 103t404.5 38.5t406.5 -38.5t276.5 -103t166 -165t85 -207t22.5 -246zM1063 274q141 0 236.5 8.5t161 34t101 53t54 86t22.5 112t4 149.5v6q0 61 -1 90t-4 77t-10 68.5 t-22.5 54.5t-37 48t-53 35.5t-74.5 29t-100.5 17.5t-128 13t-160.5 3q-94 0 -167 -5t-131.5 -13t-100.5 -26.5t-72.5 -35t-50 -49.5t-32 -61.5t-17.5 -76.5t-7 -89t-2 -107v-6q0 -141 9 -198.5t64.5 -120t176.5 -80t342 -17.5z" glyph-name="Otilde" horiz-adv-x="2113" unicode="Õ"/><glyph d="M837.5 1548q-114.5 0 -159.5 36t-45 128q0 86 46 125t158.5 39t158.5 -39t46 -125q0 -92 -45 -128t-159.5 -36zM1429.5 1548q-114.5 0 -159.5 36t-45 128q0 86 47 125t157.5 39t157.5 -39t47 -125q0 -92 -45 -128t-159.5 -36zM2011 706.5q0 -139.5 -22.5 -244t-84 -201.5 t-167 -158.5t-276.5 -98.5t-406 -37q-233 0 -404.5 37t-276 98.5t-166 158.5t-84 201.5t-22.5 244t22.5 246t84 207t166 165t275.5 103t404.5 38.5t406.5 -38.5t276.5 -103t166 -165t85 -207t22.5 -246zM1063 274q141 0 236.5 8.5t161 34t101 53t54 86t22.5 112t4 149.5v6 q0 61 -1 90t-4 77t-10 68.5t-22.5 54.5t-37 48t-53 35.5t-74.5 29t-100.5 17.5t-128 13t-160.5 3q-94 0 -167 -5t-131.5 -13t-100.5 -26.5t-72.5 -35t-50 -49.5t-32 -61.5t-17.5 -76.5t-7 -89t-2 -107v-6q0 -141 9 -198.5t64.5 -120t176.5 -80t342 -17.5z" glyph-name="Odieresis" horiz-adv-x="2113" unicode="Ö"/><glyph d="M1161 905l-352 -325l352 -324l-188 -188l-334 325l-334 -325l-188 188l352 324l-352 325l188 189l334 -326l334 326z" glyph-name="multiply" horiz-adv-x="1277" unicode="×"/><glyph d="M1053 1890h379l-322 -293h-328zM1806 518q-2 -119 -41 -212t-128 -173t-257 -123t-407 -43q-238 0 -405 43t-256 123t-128 173t-41 212v916h369v-897q0 -96 33 -148.5t136 -83.5t300 -31q258 0 356.5 60.5t100.5 202.5v897h368v-916z" glyph-name="Uacute" horiz-adv-x="1949" unicode="Ú"/><glyph d="M1163 1907l412 -310h-389l-207 164l-207 -164h-389l412 310h368zM1806 518q-2 -119 -41 -212t-128 -173t-257 -123t-407 -43q-238 0 -405 43t-256 123t-128 173t-41 212v916h369v-897q0 -96 33 -148.5t136 -83.5t300 -31q258 0 356.5 60.5t100.5 202.5v897h368v-916z" glyph-name="Ucircumflex" horiz-adv-x="1949" unicode="Û"/><glyph d="M755.5 1548q-114.5 0 -159.5 36t-45 128q0 86 46 125t158.5 39t159 -39t46.5 -125q0 -92 -45.5 -128t-160 -36zM1347.5 1548q-114.5 0 -159.5 36t-45 128q0 86 47 125t157.5 39t157.5 -39t47 -125q0 -92 -45 -128t-159.5 -36zM1806 518q-2 -119 -41 -212t-128 -173 t-257 -123t-407 -43q-238 0 -405 43t-256 123t-128 173t-41 212v916h369v-897q0 -96 33 -148.5t136 -83.5t300 -31q258 0 356.5 60.5t100.5 202.5v897h368v-916z" glyph-name="Udieresis" horiz-adv-x="1949" unicode="Ü"/><glyph d="M1391 1890l-322 -293h-328l271 293h379zM1808 1434l-700 -908v-526h-348v524l-703 910h430l447 -613l444 613h430z" glyph-name="Yacute" horiz-adv-x="1865" unicode="Ý"/><glyph d="M1597 727q174 -92 175 -317q0 -61 -14.5 -116.5t-53.5 -111t-101.5 -95.5t-165 -64.5t-237.5 -24.5h-403v287l460 2q84 0 115 24.5t31 108.5q0 53 -10.5 86t-34 47t-44 17t-57.5 3l-460 2v283l460 2q51 0 77 5t47.5 38t21.5 101q0 51 -9.5 80.5t-33 43t-44 16.5t-59.5 3 l-618 2q-84 0 -118 -32t-36 -95l-2 -61v-961h-346v961v86q0 219 187.5 303t625.5 84h2q399 0 589 -89.5t190 -330.5q-1 -183 -134 -287z" glyph-name="germandbls" horiz-adv-x="1931" unicode="ß"/><glyph d="M1004 1481h378l-321 -293h-328zM1417 1024h348v-1024h-348v121q-166 -154 -635 -154q-182 0 -313 26.5t-209 71t-122 117t-58 147t-14 179t14 179.5t58 147.5t122 116.5t209 71t313 27q252 0 400.5 -37t234.5 -117v129zM864 254q313 0 443.5 60.5t130.5 185.5v16 q0 125 -130 185.5t-444 60.5q-113 0 -169 -3t-121.5 -15.5t-93 -39t-47 -74.5t-19.5 -122t19.5 -122t47 -74.5t93 -39t121.5 -15.5t169 -3z" glyph-name="aacute" horiz-adv-x="1884" unicode="á"/><glyph d="M1114 1497l412 -309h-389l-207 164l-207 -164h-389l411 309h369zM1417 1024h348v-1024h-348v121q-166 -154 -635 -154q-182 0 -313 26.5t-209 71t-122 117t-58 147t-14 179t14 179.5t58 147.5t122 116.5t209 71t313 27q252 0 400.5 -37t234.5 -117v129zM864 254 q313 0 443.5 60.5t130.5 185.5v16q0 125 -130 185.5t-444 60.5q-113 0 -169 -3t-121.5 -15.5t-93 -39t-47 -74.5t-19.5 -122t19.5 -122t47 -74.5t93 -39t121.5 -15.5t169 -3z" glyph-name="acircumflex" horiz-adv-x="1884" unicode="â"/><glyph d="M1243 1434h225q0 -53 -13 -101.5t-45 -95.5t-93.5 -74.5t-147.5 -27.5q-90 0 -235.5 42t-206.5 42q-119 0 -119 -84h-225q0 119 67.5 210t223.5 91q90 0 238.5 -47.5t207.5 -47.5q123 1 123 93zM1417 1024h348v-1024h-348v121q-166 -154 -635 -154q-182 0 -313 26.5 t-209 71t-122 117t-58 147t-14 179t14 179.5t58 147.5t122 116.5t209 71t313 27q252 0 400.5 -37t234.5 -117v129zM864 254q313 0 443.5 60.5t130.5 185.5v16q0 125 -130 185.5t-444 60.5q-113 0 -169 -3t-121.5 -15.5t-93 -39t-47 -74.5t-19.5 -122t19.5 -122t47 -74.5 t93 -39t121.5 -15.5t169 -3z" glyph-name="atilde" horiz-adv-x="1884" unicode="ã"/><glyph d="M706.5 1139q-114.5 0 -159.5 35.5t-45 128.5q0 86 46 124.5t158.5 38.5t158.5 -38.5t46 -124.5q0 -92 -45 -128t-159.5 -36zM1298.5 1139q-114.5 0 -159.5 35.5t-45 128.5q0 86 47 124.5t157.5 38.5t157.5 -38.5t47 -124.5q0 -92 -45 -128t-159.5 -36zM1417 1024h348 v-1024h-348v121q-166 -154 -635 -154q-182 0 -313 26.5t-209 71t-122 117t-58 147t-14 179t14 179.5t58 147.5t122 116.5t209 71t313 27q252 0 400.5 -37t234.5 -117v129zM864 254q313 0 443.5 60.5t130.5 185.5v16q0 125 -130 185.5t-444 60.5q-113 0 -169 -3t-121.5 -15.5 t-93 -39t-47 -74.5t-19.5 -122t19.5 -122t47 -74.5t93 -39t121.5 -15.5t169 -3z" glyph-name="adieresis" horiz-adv-x="1884" unicode="ä"/><glyph d="M926 1106q-121 0 -197 73.5t-76 172t76 168t197 69.5q127 0 199.5 -72.5t72.5 -166.5q0 -102 -76.5 -173t-195.5 -71zM926 1249q37 0 57.5 4t28.5 19.5t10 29t2 46.5q0 63 -15.5 79.5t-82.5 16.5q-39 0 -59.5 -4t-29 -19.5t-9.5 -28t-1 -46.5q0 -41 3.5 -56.5t25 -28 t70.5 -12.5zM1417 1024h348v-1024h-348v121q-166 -154 -635 -154q-182 0 -313 26.5t-209 71t-122 117t-58 147t-14 179t14 179.5t58 147.5t122 116.5t209 71t313 27q252 0 400.5 -37t234.5 -117v129zM864 254q313 0 443.5 60.5t130.5 185.5v16q0 125 -130 185.5t-444 60.5 q-113 0 -169 -3t-121.5 -15.5t-93 -39t-47 -74.5t-19.5 -122t19.5 -122t47 -74.5t93 -39t121.5 -15.5t169 -3z" glyph-name="aring" horiz-adv-x="1884" unicode="å"/><glyph d="M920 254q309 0 410.5 26.5t101.5 137.5h348q0 -90 -28 -159t-101.5 -134.5t-225 -105t-374.5 -50.5l-35 -45q147 0 237 -55t90 -137q0 -90 -103 -162t-363 -72q-211 0 -316 31v203q111 -29 330 -29q197 0 196 43q0 37 -292 37h-160l125 188q-387 18 -544 144.5 t-157 386.5q0 197 74 313.5t262.5 177t515.5 60.5q217 0 377 -26t253 -65.5t148.5 -101t73 -122t17.5 -136.5h-348q0 39 -10.5 66.5t-42 46t-62.5 28t-100.5 14.5t-127 6t-170 1t-169 -1t-127 -7t-101 -18.5t-62.5 -35t-42 -57.5t-10 -84v-102q0 -49 10 -84t40.5 -57.5 t62.5 -36t101.5 -19.5t128 -7t169.5 -1z" glyph-name="ccedilla" horiz-adv-x="1744" unicode="ç"/><glyph d="M977 1481h379l-322 -293h-327zM1759 516q0 -63 -4 -88h-1345q0 -113 136 -154t394 -41q139 0 232.5 9.5t137.5 26t60 31.5t23 36h342q2 -72 -31 -132.5t-113 -116.5t-235.5 -88t-374.5 -32q-352 0 -555 57.5t-285 171t-82 306.5q0 301 186.5 426t653.5 125 q209 0 365.5 -29t250 -76t149.5 -118.5t75.5 -145.5t19.5 -168zM897 797q-125 0 -197.5 -4.5t-147.5 -20.5t-108.5 -53t-33.5 -96h999q0 49 -24.5 81.5t-62.5 50t-109.5 28t-138 12.5t-177.5 2z" glyph-name="eacute" horiz-adv-x="1818" unicode="é"/><glyph d="M1087 1497l412 -309h-389l-207 164l-207 -164h-389l412 309h368zM1759 516q0 -63 -4 -88h-1345q0 -113 136 -154t394 -41q139 0 232.5 9.5t137.5 26t60 31.5t23 36h342q2 -72 -31 -132.5t-113 -116.5t-235.5 -88t-374.5 -32q-352 0 -555 57.5t-285 171t-82 306.5 q0 301 186.5 426t653.5 125q209 0 365.5 -29t250 -76t149.5 -118.5t75.5 -145.5t19.5 -168zM897 797q-125 0 -197.5 -4.5t-147.5 -20.5t-108.5 -53t-33.5 -96h999q0 49 -24.5 81.5t-62.5 50t-109.5 28t-138 12.5t-177.5 2z" glyph-name="ecircumflex" horiz-adv-x="1818" unicode="ê"/><glyph d="M680 1139q-115 0 -160 35.5t-45 128.5q0 86 47 124.5t158 38.5t158 -38.5t47 -124.5q0 -92 -45 -128t-160 -36zM1271.5 1139q-114.5 0 -159.5 35.5t-45 128.5q0 86 46 124.5t159 38.5q111 0 158 -38.5t47 -124.5q0 -92 -45.5 -128t-160 -36zM1759 516q0 -63 -4 -88h-1345 q0 -113 136 -154t394 -41q139 0 232.5 9.5t137.5 26t60 31.5t23 36h342q2 -72 -31 -132.5t-113 -116.5t-235.5 -88t-374.5 -32q-352 0 -555 57.5t-285 171t-82 306.5q0 301 186.5 426t653.5 125q209 0 365.5 -29t250 -76t149.5 -118.5t75.5 -145.5t19.5 -168zM897 797 q-125 0 -197.5 -4.5t-147.5 -20.5t-108.5 -53t-33.5 -96h999q0 49 -24.5 81.5t-62.5 50t-109.5 28t-138 12.5t-177.5 2z" glyph-name="edieresis" horiz-adv-x="1818" unicode="ë"/><glyph d="M373 1481h379l-322 -293h-328zM121 1024h348v-1024h-348v1024z" glyph-name="iacute" horiz-adv-x="589" unicode="í"/><glyph d="M764 1497l412 -309h-390l-206 164l-207 -164h-389l411 309h369zM401 1024h349v-1024h-349v1024z" glyph-name="icircumflex" horiz-adv-x="1179" unicode="î"/><glyph d="M-45 1139q-115 0 -160 35.5t-45 128.5q0 86 47 124.5t158 38.5t158 -38.5t47 -124.5q0 -92 -45 -128t-160 -36zM547 1139q-115 0 -160 35.5t-45 128.5q0 86 46 124.5t158.5 38.5t159 -38.5t46.5 -124.5q0 -92 -45 -128t-160 -36zM121 1024h348v-1024h-348v1024z" glyph-name="idieresis" horiz-adv-x="589" unicode="ï"/><glyph d="M731 1219q-119 0 -119 -84h-225q0 119 67.5 210t223.5 91q90 0 238.5 -47.5t207.5 -47.5q123 0 123 93h226q0 -53 -13.5 -101.5t-45.5 -95.5t-93 -74.5t-147 -27.5q-90 0 -236 42t-207 42zM1065 1049q344 0 509 -121t165 -418v-510h-348l-2 506q0 162 -95.5 207 t-371.5 45q-252 0 -352.5 -46t-100.5 -206v-506h-348v1024h348v-102q94 61 226 94t370 33z" glyph-name="ntilde" unicode="ñ"/><glyph d="M981 1481h379l-322 -293h-327zM918 1053q481 0 671.5 -124t190.5 -417q0 -197 -79 -313.5t-267.5 -174t-514 -57.5t-514 57.5t-267.5 173t-79 312.5q0 299 194 421t665 122zM1432 459v102q0 49 -10.5 84t-41 57.5t-62.5 36t-101.5 19.5t-128 7t-169 1t-169 -1t-128 -7 t-101.5 -19.5t-62.5 -36t-40.5 -57.5t-10 -84v-102q0 -49 10 -84t40.5 -57.5t62.5 -36t101.5 -19.5t128 -7t169 -1t169 1t128 7t101.5 19.5t62.5 36t41 57.5t10.5 84z" glyph-name="oacute" horiz-adv-x="1839" unicode="ó"/><glyph d="M1092 1497l411 -309h-389l-207 164l-207 -164h-389l412 309h369zM918 1053q481 0 671.5 -124t190.5 -417q0 -197 -79 -313.5t-267.5 -174t-514 -57.5t-514 57.5t-267.5 173t-79 312.5q0 299 194 421t665 122zM1432 459v102q0 49 -10.5 84t-41 57.5t-62.5 36t-101.5 19.5 t-128 7t-169 1t-169 -1t-128 -7t-101.5 -19.5t-62.5 -36t-40.5 -57.5t-10 -84v-102q0 -49 10 -84t40.5 -57.5t62.5 -36t101.5 -19.5t128 -7t169 -1t169 1t128 7t101.5 19.5t62.5 36t41 57.5t10.5 84z" glyph-name="ocircumflex" horiz-adv-x="1839" unicode="ô"/><glyph d="M1221 1434h225q0 -53 -13.5 -101.5t-45 -95.5t-93 -74.5t-147.5 -27.5q-90 0 -235.5 42t-206.5 42q-119 0 -119 -84h-226q0 119 68 210t223 91q90 0 238.5 -47.5t208.5 -47.5q123 1 123 93zM918 1053q481 0 671.5 -124t190.5 -417q0 -197 -79 -313.5t-267.5 -174 t-514 -57.5t-514 57.5t-267.5 173t-79 312.5q0 299 194 421t665 122zM1432 459v102q0 49 -10.5 84t-41 57.5t-62.5 36t-101.5 19.5t-128 7t-169 1t-169 -1t-128 -7t-101.5 -19.5t-62.5 -36t-40.5 -57.5t-10 -84v-102q0 -49 10 -84t40.5 -57.5t62.5 -36t101.5 -19.5t128 -7 t169 -1t169 1t128 7t101.5 19.5t62.5 36t41 57.5t10.5 84z" glyph-name="otilde" horiz-adv-x="1839" unicode="õ"/><glyph d="M684 1139q-115 0 -160 35.5t-45 128.5q0 86 47 124.5t158 38.5t158 -38.5t47 -124.5q0 -92 -45 -128t-160 -36zM1276 1139q-115 0 -160 35.5t-45 128.5q0 86 46 124.5t159 38.5t159 -38.5t46 -124.5q0 -92 -45 -128t-160 -36zM918 1053q481 0 671.5 -124t190.5 -417 q0 -197 -79 -313.5t-267.5 -174t-514 -57.5t-514 57.5t-267.5 173t-79 312.5q0 299 194 421t665 122zM1432 459v102q0 49 -10.5 84t-41 57.5t-62.5 36t-101.5 19.5t-128 7t-169 1t-169 -1t-128 -7t-101.5 -19.5t-62.5 -36t-40.5 -57.5t-10 -84v-102q0 -49 10 -84t40.5 -57.5 t62.5 -36t101.5 -19.5t128 -7t169 -1t169 1t128 7t101.5 19.5t62.5 36t41 57.5t10.5 84z" glyph-name="odieresis" horiz-adv-x="1839" unicode="ö"/><glyph d="M809 797q-98 0 -142 36.5t-44 122.5q0 160 186 160q184 0 184 -160q0 -86 -43 -122.5t-141 -36.5zM1495 467h-1372v242h1372v-242zM809 61q-98 0 -142 37t-44 123q0 160 186 160q184 0 184 -160q0 -86 -43 -123t-141 -37z" glyph-name="divide" horiz-adv-x="1617" unicode="÷"/><glyph d="M981 1481h379l-322 -293h-327zM1364 1024h348v-1024h-348v141q-8 -4 -66.5 -42t-88 -51t-94 -37.5t-144.5 -34t-180 -9.5q-176 0 -304.5 26.5t-203 69.5t-117.5 114t-57.5 143.5t-14.5 173.5v530h348v-530q0 -68 20.5 -112t53.5 -69.5t97.5 -39t127 -16.5t168.5 -3 q84 0 149.5 6t113 20.5t81 28t54 42t33 48t17.5 60.5t6 64.5t1 72.5v428z" glyph-name="uacute" unicode="ú"/><glyph d="M1092 1497l411 -309h-389l-207 164l-207 -164h-389l412 309h369zM1364 1024h348v-1024h-348v141q-8 -4 -66.5 -42t-88 -51t-94 -37.5t-144.5 -34t-180 -9.5q-176 0 -304.5 26.5t-203 69.5t-117.5 114t-57.5 143.5t-14.5 173.5v530h348v-530q0 -68 20.5 -112t53.5 -69.5 t97.5 -39t127 -16.5t168.5 -3q84 0 149.5 6t113 20.5t81 28t54 42t33 48t17.5 60.5t6 64.5t1 72.5v428z" glyph-name="ucircumflex" unicode="û"/><glyph d="M684 1139q-115 0 -160 35.5t-45 128.5q0 86 47 124.5t158 38.5t158 -38.5t47 -124.5q0 -92 -45 -128t-160 -36zM1276 1139q-115 0 -160 35.5t-45 128.5q0 86 46 124.5t159 38.5t159 -38.5t46 -124.5q0 -92 -45 -128t-160 -36zM1364 1024h348v-1024h-348v141 q-8 -4 -66.5 -42t-88 -51t-94 -37.5t-144.5 -34t-180 -9.5q-176 0 -304.5 26.5t-203 69.5t-117.5 114t-57.5 143.5t-14.5 173.5v530h348v-530q0 -68 20.5 -112t53.5 -69.5t97.5 -39t127 -16.5t168.5 -3q84 0 149.5 6t113 20.5t81 28t54 42t33 48t17.5 60.5t6 64.5t1 72.5 v428z" glyph-name="udieresis" unicode="ü"/><glyph d="M999 1481h379l-321 -293h-328zM1343 1024h349v-862q0 -242 -79 -376t-262.5 -193.5t-514.5 -59.5q-680 0 -707 365h338q43 -109 401 -109q193 0 298.5 38t141 106.5t35.5 187.5q-49 -70 -202.5 -112t-349.5 -42q-170 0 -294 26.5t-197 69.5t-115 114t-56 143.5t-14 173.5 v530h348v-530q0 -66 20.5 -111t51 -70.5t90 -39t115 -16.5t149.5 -3q70 0 124 2t98 9t77 12.5t57.5 20.5t41 25.5t27.5 35t17 40t9 50t3 56v68.5v451z" glyph-name="yacute" horiz-adv-x="1822" unicode="ý"/><glyph d="M581.5 1139q-114.5 0 -159.5 35.5t-45 128.5q0 86 47 124.5t157.5 38.5t157.5 -38.5t47 -124.5q0 -92 -45 -128t-159.5 -36zM1173.5 1139q-114.5 0 -159.5 35.5t-45 128.5q0 86 46 124.5t159 38.5q111 0 157.5 -38.5t46.5 -124.5q0 -92 -45 -128t-159.5 -36zM1343 1024 h349v-862q0 -242 -79 -376t-262.5 -193.5t-514.5 -59.5q-680 0 -707 365h338q43 -109 401 -109q193 0 298.5 38t141 106.5t35.5 187.5q-49 -70 -202.5 -112t-349.5 -42q-170 0 -294 26.5t-197 69.5t-115 114t-56 143.5t-14 173.5v530h348v-530q0 -66 20.5 -111t51 -70.5 t90 -39t115 -16.5t149.5 -3q70 0 124 2t98 9t77 12.5t57.5 20.5t41 25.5t27.5 35t17 40t9 50t3 56v68.5v451z" glyph-name="ydieresis" horiz-adv-x="1822" unicode="ÿ"/><glyph d="M1647 1792v-195h-1270v195h1270zM1561 0l-142 287h-817l-141 -287h-400l756 1434h389l754 -1434h-399zM743 573h535l-266 543z" glyph-name="Amacron" horiz-adv-x="2041" unicode="Ā"/><glyph d="M1561 1188h-1270v194h1270v-194zM1417 1024h348v-1024h-348v121q-166 -154 -635 -154q-182 0 -313 26.5t-209 71t-122 117t-58 147t-14 179t14 179.5t58 147.5t122 116.5t209 71t313 27q252 0 400.5 -37t234.5 -117v129zM864 254q313 0 443.5 60.5t130.5 185.5v16 q0 125 -130 185.5t-444 60.5q-113 0 -169 -3t-121.5 -15.5t-93 -39t-47 -74.5t-19.5 -122t19.5 -122t47 -74.5t93 -39t121.5 -15.5t169 -3z" glyph-name="amacron" horiz-adv-x="1884" unicode="ā"/><glyph d="M1016 1597q-233 0 -362.5 34t-176.5 97.5t-47 176.5h348q0 -45 14.5 -71t52.5 -37t69.5 -13t103.5 -2q49 0 73.5 1t62.5 7t56.5 18.5t32.5 37t14 59.5h349q0 -166 -126 -237t-464 -71zM1561 0l-142 287h-817l-141 -287h-400l756 1434h389l754 -1434h-399zM743 573h535 l-266 543z" glyph-name="Abreve" horiz-adv-x="2041" unicode="Ă"/><glyph d="M1171 1495h349q0 -166 -126 -236.5t-464 -70.5q-233 0 -362.5 33.5t-176.5 97t-47 176.5h348q0 -45 14.5 -70.5t52.5 -37t69.5 -13.5t103.5 -2q49 0 73.5 1t62.5 7t56.5 18.5t32.5 37t14 59.5zM1417 1024h348v-1024h-348v121q-166 -154 -635 -154q-182 0 -313 26.5 t-209 71t-122 117t-58 147t-14 179t14 179.5t58 147.5t122 116.5t209 71t313 27q252 0 400.5 -37t234.5 -117v129zM864 254q313 0 443.5 60.5t130.5 185.5v16q0 125 -130 185.5t-444 60.5q-113 0 -169 -3t-121.5 -15.5t-93 -39t-47 -74.5t-19.5 -122t19.5 -122t47 -74.5 t93 -39t121.5 -15.5t169 -3z" glyph-name="abreve" horiz-adv-x="1884" unicode="ă"/><glyph d="M1810 -254q152 0 230 18v-225q-84 -18 -260 -18q-285 0 -404 67.5t-119 190.5q0 176 283 262l-121 246h-817l-141 -287h-400l756 1434h389l754 -1434h-98q-43 -8 -65.5 -13t-68 -18.5t-69 -27t-44 -37t-20.5 -51.5q0 -107 215 -107zM743 573h535l-266 543z" glyph-name="Aogonek" horiz-adv-x="2041" unicode="Ą"/><glyph d="M1714 -254q152 0 230 18v-225q-84 -18 -261 -18q-285 0 -403.5 67.5t-118.5 190.5q0 164 256 254v88q-166 -154 -635 -154q-182 0 -313 26.5t-209 71t-122 117t-58 147t-14 179t14 179.5t58 147.5t122 116.5t209 71t313 27q252 0 400.5 -37t234.5 -117v129h348v-1024 q-43 -8 -65.5 -13t-67.5 -18.5t-68.5 -27t-44 -37t-20.5 -51.5q0 -107 215 -107zM864 254q313 0 443.5 60.5t130.5 185.5v16q0 125 -130 185.5t-444 60.5q-113 0 -169 -3t-121.5 -15.5t-93 -39t-47 -74.5t-19.5 -122t19.5 -122t47 -74.5t93 -39t121.5 -15.5t169 -3z" glyph-name="aogonek" horiz-adv-x="1884" unicode="ą"/><glyph d="M1014 1890h379l-322 -293h-328zM1028 276q283 0 384 60.5t101 241.5h367q-16 -195 -47 -277q-102 -256 -518 -313q-133 -18 -299 -19q-213 0 -375 38t-262 102.5t-163.5 161t-88.5 203t-25 239.5v4v2v2v4q0 133 25 239.5t88.5 203t163.5 161t262 102t375 37.5 q162 0 293 -23.5t217 -58t151.5 -90t100 -104.5t58.5 -116.5t31 -111.5t13 -104h-367q0 176 -102 238.5t-383 62.5q-143 0 -227 -8t-157 -32.5t-107.5 -74t-54 -128t-19.5 -199.5t19.5 -200t54 -128t107.5 -73.5t157 -33t227 -8.5z" glyph-name="Cacute" horiz-adv-x="1982" unicode="Ć"/><glyph d="M999 1434h349l-332 -293h-287zM920 254q309 0 410.5 26.5t101.5 137.5h348q0 -76 -17.5 -135.5t-73 -121t-148.5 -102.5t-252 -66.5t-376 -25.5q-477 0 -665.5 126t-188.5 409q0 197 74 313.5t262.5 177t515.5 60.5q217 0 377 -26t253 -65.5t148.5 -101t73 -122 t17.5 -136.5h-348q0 39 -10.5 66.5t-42 46t-62.5 28t-100.5 14.5t-127 6t-170 1t-169 -1t-127 -7t-101 -18.5t-62.5 -35t-42 -57.5t-10 -84v-102q0 -49 10 -84t40.5 -57.5t62.5 -36t101.5 -19.5t128 -7t169.5 -1z" glyph-name="cacute" horiz-adv-x="1744" unicode="ć"/><glyph d="M1128 1536h-368l-412 309h389l207 -164l207 164h389zM1028 276q283 0 384 60.5t101 241.5h367q-16 -195 -47 -277q-102 -256 -518 -313q-133 -18 -299 -19q-213 0 -375 38t-262 102.5t-163.5 161t-88.5 203t-25 239.5v4v2v2v4q0 133 25 239.5t88.5 203t163.5 161t262 102 t375 37.5q162 0 293 -23.5t217 -58t151.5 -90t100 -104.5t58.5 -116.5t31 -111.5t13 -104h-367q0 176 -102 238.5t-383 62.5q-143 0 -227 -8t-157 -32.5t-107.5 -74t-54 -128t-19.5 -199.5t19.5 -200t54 -128t107.5 -73.5t157 -33t227 -8.5z" glyph-name="Ccaron" horiz-adv-x="1982" unicode="Č"/><glyph d="M1112 1126h-369l-411 310h389l207 -164l207 164h389zM920 254q309 0 410.5 26.5t101.5 137.5h348q0 -76 -17.5 -135.5t-73 -121t-148.5 -102.5t-252 -66.5t-376 -25.5q-477 0 -665.5 126t-188.5 409q0 197 74 313.5t262.5 177t515.5 60.5q217 0 377 -26t253 -65.5 t148.5 -101t73 -122t17.5 -136.5h-348q0 39 -10.5 66.5t-42 46t-62.5 28t-100.5 14.5t-127 6t-170 1t-169 -1t-127 -7t-101 -18.5t-62.5 -35t-42 -57.5t-10 -84v-102q0 -49 10 -84t40.5 -57.5t62.5 -36t101.5 -19.5t128 -7t169.5 -1z" glyph-name="ccaron" horiz-adv-x="1744" unicode="č"/><glyph d="M1057 1536h-369l-412 309h390l206 -164l207 164h389zM723 1434h86q74 -2 150.5 0t154.5 -5.5t152.5 -17.5t146.5 -36.5t133.5 -61.5t113.5 -91.5t89 -128t57.5 -171t20.5 -220.5q0 -147 -34 -262.5t-92.5 -188.5t-137 -125t-169.5 -74.5t-190.5 -38t-199 -13.5t-195.5 0 h-90h-549v1434h553zM825 307h76q154 0 218.5 1t149.5 13.5t110.5 34t57 68.5t37 110.5t5.5 167.5q0 113 -5.5 180.5t-38 119t-56 74t-111.5 35.5t-149.5 14t-219.5 1h-72h-309v-819h307z" glyph-name="Dcaron" horiz-adv-x="1927" unicode="Ď"/><glyph d="M1933 1638h308l-62 -614h-246v614zM1417 913v623h348v-1536h-348v98q-209 -131 -614 -131q-188 0 -323.5 28t-215.5 71t-125 115.5t-59 147t-14 179t14 179.5t58 147.5t122 116.5t209 71t313 27q422 -1 635 -136zM864 254q221 0 347 29.5t171 81t45 135.5v16 q0 84 -45 134t-176 80t-362 30q-106 0 -158.5 -2t-116 -15.5t-90 -39t-46 -73.5t-19.5 -122t19.5 -122t47 -74.5t93 -39t121.5 -15.5t169 -3z" glyph-name="dcaron" horiz-adv-x="2244" unicode="ď"/><glyph d="M836 1434h86q74 -2 150.5 0t154.5 -5.5t152.5 -17.5t146 -36.5t133 -61.5t114 -91.5t89 -128t57 -171t20.5 -220.5q0 -147 -33.5 -262.5t-92 -188.5t-137.5 -125t-170 -74.5t-190 -38t-198.5 -13.5t-195.5 0h-91h-548v598h-211v225h211v611h553zM938 307h76q154 0 218 1 t149 13.5t111 34t57.5 68.5t36.5 110.5t5 167.5q0 113 -5 180.5t-37.5 119t-56.5 74t-112 35.5t-149.5 14t-218.5 1h-72h-309v-303h352v-225h-352v-291h307z" glyph-name="Dcroat" horiz-adv-x="2039" unicode="Đ"/><glyph d="M2107 1319v-195h-303v-1124h-348v98q-209 -131 -614 -131q-188 0 -323.5 28t-215.5 71t-125 115.5t-59.5 147t-14.5 179t14.5 179.5t58.5 147.5t122 116.5t209 71t313 27q422 0 635 -136v211h-373v195h373v217h348v-217h303zM903 254q221 0 347 29.5t171 81t45 135.5v16 q0 84 -45 134t-176 80t-362 30q-106 0 -158.5 -2t-116 -15.5t-90 -39t-46 -73.5t-19.5 -122t19.5 -122t47 -74.5t93 -39t121.5 -15.5t169 -3z" glyph-name="dcroat" horiz-adv-x="2136" unicode="đ"/><glyph d="M1565 1792v-195h-1270v195h1270zM518 297h1174v-297h-1522v1434h1495v-297h-1147v-258h1065v-287h-1065v-295z" glyph-name="Emacron" horiz-adv-x="1808" unicode="Ē"/><glyph d="M1534 1188h-1270v194h1270v-194zM1759 516q0 -63 -4 -88h-1345q0 -113 136 -154t394 -41q139 0 232.5 9.5t137.5 26t60 31.5t23 36h342q2 -72 -31 -132.5t-113 -116.5t-235.5 -88t-374.5 -32q-352 0 -555 57.5t-285 171t-82 306.5q0 301 186.5 426t653.5 125 q209 0 365.5 -29t250 -76t149.5 -118.5t75.5 -145.5t19.5 -168zM897 797q-125 0 -197.5 -4.5t-147.5 -20.5t-108.5 -53t-33.5 -96h999q0 49 -24.5 81.5t-62.5 50t-109.5 28t-138 12.5t-177.5 2z" glyph-name="emacron" horiz-adv-x="1818" unicode="ē"/><glyph d="M929.5 1597q-102.5 0 -143.5 36t-41 128q0 86 42 125t142.5 39t142.5 -39t42 -125q0 -92 -41 -128t-143.5 -36zM518 297h1174v-297h-1522v1434h1495v-297h-1147v-258h1065v-287h-1065v-295z" glyph-name="Edotaccent" horiz-adv-x="1808" unicode="Ė"/><glyph d="M899 1188q-102 0 -143 36t-41 128q0 86 42 125t142 39t142 -39t42 -125q0 -92 -41 -128t-143 -36zM1759 516q0 -63 -4 -88h-1345q0 -113 136 -154t394 -41q139 0 232.5 9.5t137.5 26t60 31.5t23 36h342q2 -72 -31 -132.5t-113 -116.5t-235.5 -88t-374.5 -32 q-352 0 -555 57.5t-285 171t-82 306.5q0 301 186.5 426t653.5 125q209 0 365.5 -29t250 -76t149.5 -118.5t75.5 -145.5t19.5 -168zM897 797q-125 0 -197.5 -4.5t-147.5 -20.5t-108.5 -53t-33.5 -96h999q0 49 -24.5 81.5t-62.5 50t-109.5 28t-138 12.5t-177.5 2z" glyph-name="edotaccent" horiz-adv-x="1818" unicode="ė"/><glyph d="M1425 0q-43 -8 -65.5 -13t-67.5 -18.5t-68.5 -27t-44 -37t-20.5 -51.5q0 -106 215 -107q152 0 230 18v-225q-84 -18 -261 -18q-285 0 -403.5 67.5t-118.5 190.5q0 139 176 221h-827v1434h1495v-297h-1147v-258h1065v-287h-1065v-295h1174v-297h-267z" glyph-name="Eogonek" horiz-adv-x="1808" unicode="Ę"/><glyph d="M1759 516q0 -63 -4 -88h-1345q0 -113 136 -154t394 -41q139 0 232.5 9.5t137.5 26t60 31.5t23 36h342q6 -127 -108 -224.5t-390 -129.5q-193 -43 -193 -134q0 -106 216 -106q152 0 229 18v-225q-84 -18 -260 -18q-285 0 -403.5 67.5t-118.5 190.5q0 115 129 194 q-293 10 -464 72.5t-242 172.5t-71 288q0 301 186.5 426t653.5 125q209 0 365.5 -29t250 -76t149.5 -118.5t75.5 -145.5t19.5 -168zM410 623h999q0 49 -24.5 81.5t-62.5 50t-109.5 28t-138 12.5t-177.5 2q-125 0 -197.5 -4.5t-147.5 -20.5t-108.5 -53t-33.5 -96z" glyph-name="eogonek" horiz-adv-x="1818" unicode="ę"/><glyph d="M1122 1536h-368l-412 309h389l207 -164l207 164h389zM518 297h1174v-297h-1522v1434h1495v-297h-1147v-258h1065v-287h-1065v-295z" glyph-name="Ecaron" horiz-adv-x="1808" unicode="Ě"/><glyph d="M1092 1126h-369l-412 310h389l207 -164l207 164h389zM1759 516q0 -63 -4 -88h-1345q0 -113 136 -154t394 -41q139 0 232.5 9.5t137.5 26t60 31.5t23 36h342q2 -72 -31 -132.5t-113 -116.5t-235.5 -88t-374.5 -32q-352 0 -555 57.5t-285 171t-82 306.5q0 301 186.5 426 t653.5 125q209 0 365.5 -29t250 -76t149.5 -118.5t75.5 -145.5t19.5 -168zM897 797q-125 0 -197.5 -4.5t-147.5 -20.5t-108.5 -53t-33.5 -96h999q0 49 -24.5 81.5t-62.5 50t-109.5 28t-138 12.5t-177.5 2z" glyph-name="ecaron" horiz-adv-x="1818" unicode="ě"/><glyph d="M741 831h1133q14 -129 14 -311q0 -285 -211 -417t-651 -134q-266 0 -452.5 55.5t-287 161t-142.5 232.5t-42 295v4v2v6q0 168 42 295t140.5 231.5t282 159.5t449.5 55q399 -2 619 -139t220 -375h-378q-12 115 -120 164t-329 49q-135 0 -218 -8t-156.5 -33.5t-111.5 -75 t-58.5 -129t-20.5 -200.5t19.5 -200t53 -128t107.5 -73.5t158 -33t225 -8.5q303 0 413.5 56.5t123.5 222.5h-822v276zM856 -164h358l-260 -293h-327z" glyph-name="Gcommaaccent" horiz-adv-x="1996" unicode="Ģ"/><glyph d="M1042 1188h-378l280 293h348zM1792 213q0 -362 -206 -522t-668 -160q-197 0 -339.5 23.5t-219 58.5t-123 90t-59.5 99t-19 108h340q25 -80 110.5 -96.5t337.5 -16.5q279 0 387.5 80t108.5 264q-84 -94 -227.5 -134t-387.5 -40q-215 0 -365.5 39t-234.5 113t-120.5 168 t-36.5 221q0 106 14 180t60 146.5t128 116.5t221.5 71t333.5 27q418 0 615 -113v88h348zM1452 500v16q0 147 -107.5 195.5t-435.5 48.5q-80 0 -123 -1t-101 -4t-87 -9.5t-65.5 -18.5t-53 -30.5t-34 -45t-22.5 -61.5t-5 -82q0 -61 10 -104.5t41 -72t60.5 -44t97 -22.5t122 -9 t160.5 -2q326 0 434.5 48t108.5 198z" glyph-name="gcommaaccent" horiz-adv-x="1916" unicode="ģ"/><glyph d="M930 1597h-889v195h889v-195zM311 1434h348v-1434h-348v1434z" glyph-name="Imacron" horiz-adv-x="989" unicode="Ī"/><glyph d="M909 1188h-889v194h889v-194zM291 1024h348v-1024h-348v1024z" glyph-name="imacron" horiz-adv-x="919" unicode="ī"/><glyph d="M446 -254q152 0 230 18v-225q-82 -18 -260 -18q-285 0 -403.5 67.5t-118.5 190.5q0 170 276 260v1395h348v-1434h-20q-43 -8 -65.5 -13t-68 -18.5t-69 -27t-44 -37t-20.5 -51.5q0 -107 215 -107z" glyph-name="Iogonek" horiz-adv-x="688" unicode="Į"/><glyph d="M489.5 1188q-102.5 0 -143.5 36t-41 128q0 86 42 125t142.5 39t142.5 -39t42 -125q0 -92 -41 -128t-143.5 -36zM592 -254q152 0 229 18v-225q-84 -18 -260 -18q-285 0 -403.5 67.5t-118.5 190.5q0 170 276 260v985h349v-1024h-21q-43 -8 -65.5 -13t-67.5 -18.5t-68.5 -27 t-44 -37t-20.5 -51.5q0 -107 215 -107z" glyph-name="iogonek" horiz-adv-x="829" unicode="į"/><glyph d="M121 1024h348v-1024h-348v1024z" glyph-name="dotlessi" horiz-adv-x="589" unicode="ı"/><glyph d="M1149 821l674 -823h-461l-473 586l-369 -340l-2 2v-246h-348v1434h348v-750l803 750h491zM524 -457l230 293h358l-260 -293h-328z" glyph-name="Kcommaaccent" horiz-adv-x="1890" unicode="Ķ"/><glyph d="M1079 653l662 -653h-471l-463 473l-315 -211v-262h-349v1534h349v-946l626 436l512 -2zM477 -457l230 293h358l-260 -293h-328z" glyph-name="kcommaaccent" horiz-adv-x="1759" unicode="ķ"/><glyph d="M801 1890l-322 -293h-327l270 293h379zM518 307h1024v-307h-1372v1434h348v-1127z" glyph-name="Lacute" horiz-adv-x="1622" unicode="Ĺ"/><glyph d="M385 2095h379l-322 -293h-327zM143 1534h349v-1534h-349v1534z" glyph-name="lacute" horiz-adv-x="641" unicode="ĺ"/><glyph d="M518 307h1024v-307h-1372v1434h348v-1127zM453 -457l229 293h358l-260 -293h-327z" glyph-name="Lcommaaccent" horiz-adv-x="1622" unicode="Ļ"/><glyph d="M143 1534h349v-1534h-349v1534zM133 -164h359l-261 -293h-327z" glyph-name="lcommaaccent" horiz-adv-x="634" unicode="ļ"/><glyph d="M518 307h1024v-307h-1372v1434h348v-1127z" glyph-name="Lcaron" horiz-adv-x="1622" unicode="Ľ"/><glyph d="M502 1741h-369l-412 309h390l206 -164l207 164h389zM145 1534h349v-1534h-349v1534z" glyph-name="lcaron" horiz-adv-x="638" unicode="ľ"/><glyph d="M633 307h1024v-307h-1372v508l-211 -94v245l211 95v680h348v-1127zM1001 1065v-246l-360 -153v245z" glyph-name="Lslash" horiz-adv-x="1736" unicode="Ł"/><glyph d="M1110 1065v-266l-365 -146v-653h-348v545l-352 -146v267l352 145v723h348v-614z" glyph-name="lslash" horiz-adv-x="1155" unicode="ł"/><glyph d="M1067 1890h379l-322 -293h-327zM1460 1434h348v-1434h-389l-921 1010l20 -1010h-348v1434h389l922 -1016z" glyph-name="Nacute" horiz-adv-x="1978" unicode="Ń"/><glyph d="M1386 1481l-321 -293h-328l271 293h378zM1065 1049q344 0 509 -121t165 -418v-510h-348l-2 506q0 162 -95.5 207t-371.5 45q-252 0 -352.5 -46t-100.5 -206v-506h-348v1024h348v-102q94 61 226 94t370 33z" glyph-name="nacute" unicode="ń"/><glyph d="M1460 1434h348v-1434h-389l-921 1010l20 -1010h-348v1434h389l922 -1016zM784 -164h359l-260 -293h-328z" glyph-name="Ncommaaccent" horiz-adv-x="1978" unicode="Ņ"/><glyph d="M1065 1049q344 0 509 -121t165 -418v-510h-348l-2 506q0 162 -95.5 207t-371.5 45q-252 0 -352.5 -46t-100.5 -206v-506h-348v1024h348v-102q94 61 226 94t370 33zM526 -457l230 293h358l-260 -293h-328z" glyph-name="ncommaaccent" unicode="ņ"/><glyph d="M1182 1536h-369l-412 309h390l206 -164l207 164h389zM1460 1434h348v-1434h-389l-921 1010l20 -1010h-348v1434h389l922 -1016z" glyph-name="Ncaron" horiz-adv-x="1978" unicode="Ň"/><glyph d="M1122 1126h-368l-412 310h389l207 -164l207 164h389zM1065 1049q344 0 509 -121t165 -418v-510h-348l-2 506q0 162 -95.5 207t-371.5 45q-252 0 -352.5 -46t-100.5 -206v-506h-348v1024h348v-102q94 61 226 94t370 33z" glyph-name="ncaron" unicode="ň"/><glyph d="M1358 1434h348v-1434q-2 -199 -147.5 -304.5t-475.5 -105.5l-2 287q182 0 242 31q53 31 55 92l-880 948l20 -948h-348l2 1434h326l901 -992z" glyph-name="Eng" horiz-adv-x="1888" unicode="Ŋ"/><glyph d="M1065 1049q344 0 509 -121t165 -418v-510q0 -158 -58.5 -241t-234.5 -126t-518 -43v277h41q143 0 201.5 2t122 14.5t81 40t17.5 76.5l-2 506q0 162 -95.5 207t-371.5 45q-252 0 -352.5 -46t-100.5 -206v-506h-348v1024h348v-102q94 61 226 94t370 33z" glyph-name="eng" horiz-adv-x="1843" unicode="ŋ"/><glyph d="M1692 1597h-1270v195h1270v-195zM2011 706.5q0 -139.5 -22.5 -244t-84 -201.5t-167 -158.5t-276.5 -98.5t-406 -37q-233 0 -404.5 37t-276 98.5t-166 158.5t-84 201.5t-22.5 244t22.5 246t84 207t166 165t275.5 103t404.5 38.5t406.5 -38.5t276.5 -103t166 -165t85 -207 t22.5 -246zM1063 274q141 0 236.5 8.5t161 34t101 53t54 86t22.5 112t4 149.5v6q0 61 -1 90t-4 77t-10 68.5t-22.5 54.5t-37 48t-53 35.5t-74.5 29t-100.5 17.5t-128 13t-160.5 3q-94 0 -167 -5t-131.5 -13t-100.5 -26.5t-72.5 -35t-50 -49.5t-32 -61.5t-17.5 -76.5t-7 -89 t-2 -107v-6q0 -141 9 -198.5t64.5 -120t176.5 -80t342 -17.5z" glyph-name="Omacron" horiz-adv-x="2113" unicode="Ō"/><glyph d="M1538 1188h-1270v194h1270v-194zM918 1053q481 0 671.5 -124t190.5 -417q0 -197 -79 -313.5t-267.5 -174t-514 -57.5t-514 57.5t-267.5 173t-79 312.5q0 299 194 421t665 122zM1432 459v102q0 49 -10.5 84t-41 57.5t-62.5 36t-101.5 19.5t-128 7t-169 1t-169 -1t-128 -7 t-101.5 -19.5t-62.5 -36t-40.5 -57.5t-10 -84v-102q0 -49 10 -84t40.5 -57.5t62.5 -36t101.5 -19.5t128 -7t169 -1t169 1t128 7t101.5 19.5t62.5 36t41 57.5t10.5 84z" glyph-name="omacron" horiz-adv-x="1839" unicode="ō"/><glyph d="M827 1876h349l-312 -293h-307zM1503 1876h348l-311 -293h-307zM2011 706.5q0 -139.5 -22.5 -244t-84 -201.5t-167 -158.5t-276.5 -98.5t-406 -37q-233 0 -404.5 37t-276 98.5t-166 158.5t-84 201.5t-22.5 244t22.5 246t84 207t166 165t275.5 103t404.5 38.5t406.5 -38.5 t276.5 -103t166 -165t85 -207t22.5 -246zM1063 274q141 0 236.5 8.5t161 34t101 53t54 86t22.5 112t4 149.5v6q0 61 -1 90t-4 77t-10 68.5t-22.5 54.5t-37 48t-53 35.5t-74.5 29t-100.5 17.5t-128 13t-160.5 3q-94 0 -167 -5t-131.5 -13t-100.5 -26.5t-72.5 -35t-50 -49.5 t-32 -61.5t-17.5 -76.5t-7 -89t-2 -107v-6q0 -141 9 -198.5t64.5 -120t176.5 -80t342 -17.5z" glyph-name="Ohungarumlaut" horiz-adv-x="2113" unicode="Ő"/><glyph d="M674 1466h348l-311 -292h-308zM1350 1466h348l-312 -292h-307zM918 1053q481 0 671.5 -124t190.5 -417q0 -197 -79 -313.5t-267.5 -174t-514 -57.5t-514 57.5t-267.5 173t-79 312.5q0 299 194 421t665 122zM1432 459v102q0 49 -10.5 84t-41 57.5t-62.5 36t-101.5 19.5 t-128 7t-169 1t-169 -1t-128 -7t-101.5 -19.5t-62.5 -36t-40.5 -57.5t-10 -84v-102q0 -49 10 -84t40.5 -57.5t62.5 -36t101.5 -19.5t128 -7t169 -1t169 1t128 7t101.5 19.5t62.5 36t41 57.5t10.5 84z" glyph-name="ohungarumlaut" horiz-adv-x="1839" unicode="ő"/><glyph d="M1393 1890l-322 -293h-328l271 293h379zM1647 578q180 -76 186 -271v-307h-369v307q0 68 -55 108t-221 40h-72h-31h-567v-455h-348v1434h915q197 0 341.5 -35t219 -84t119.5 -123t55.5 -127t12.5 -121q-4 -247 -186 -366zM518 1128v-368l670 2q170 0 223 43t53 139 t-53 139t-223 43z" glyph-name="Racute" horiz-adv-x="1961" unicode="Ŕ"/><glyph d="M1069 1481l-321 -293h-328l270 293h379zM469 858q88 98 249 142t429 44v-307q-119 0 -197 -3t-163 -14t-137 -33.5t-97 -58.5t-64.5 -92.5t-19.5 -132.5v-403h-348v1024h348v-166z" glyph-name="racute" horiz-adv-x="1196" unicode="ŕ"/><glyph d="M1647 578q180 -76 186 -271v-307h-369v307q0 68 -55 108t-221 40h-72h-31h-567v-455h-348v1434h915q197 0 341.5 -35t219 -84t119.5 -123t55.5 -127t12.5 -121q-4 -247 -186 -366zM518 1128v-368l670 2q170 0 223 43t53 139t-53 139t-223 43zM600 -457l229 293h359 l-260 -293h-328z" glyph-name="Rcommaaccent" horiz-adv-x="1961" unicode="Ŗ"/><glyph d="M469 858q88 98 249 142t429 44v-307q-119 0 -197 -3t-163 -14t-137 -33.5t-97 -58.5t-64.5 -92.5t-19.5 -132.5v-403h-348v1024h348v-166zM-88 -457l229 293h359l-260 -293h-328z" glyph-name="rcommaaccent" horiz-adv-x="1196" unicode="ŗ"/><glyph d="M1128 1536h-368l-412 309h389l207 -164l207 164h389zM1647 578q180 -76 186 -271v-307h-369v307q0 68 -55 108t-221 40h-72h-31h-567v-455h-348v1434h915q197 0 341.5 -35t219 -84t119.5 -123t55.5 -127t12.5 -121q-4 -247 -186 -366zM518 1128v-368l670 2q170 0 223 43 t53 139t-53 139t-223 43z" glyph-name="Rcaron" horiz-adv-x="1961" unicode="Ř"/><glyph d="M805 1126h-369l-411 310h389l207 -164l206 164h390zM469 858q88 98 249 142t429 44v-307q-119 0 -197 -3t-163 -14t-137 -33.5t-97 -58.5t-64.5 -92.5t-19.5 -132.5v-403h-348v1024h348v-166z" glyph-name="rcaron" horiz-adv-x="1196" unicode="ř"/><glyph d="M1016 1890h379l-322 -293h-328zM494 1024q0 -37 19 -61.5t61 -40t91.5 -24.5t123 -14t141 -8.5t164 -8.5t174.5 -13q82 -8 146.5 -18.5t149.5 -40t141 -72.5t96 -118t40 -171q0 -254 -247.5 -368.5t-684.5 -92.5q-434 23 -626.5 153t-192.5 357l371 -6 q14 -113 125.5 -155.5t328.5 -51.5q152 -6 262.5 2.5t165 22.5t85 38.5t35.5 39t7 35.5q2 33 -18 56t-63 38.5t-94.5 25t-123 15.5t-134 9t-143.5 8t-138 11q-631 66 -631 428q0 215 210 345.5t634 119.5q420 -10 615.5 -144t195.5 -345h-369q-12 106 -115.5 150t-351.5 49 q-244 2 -347 -35t-103 -115z" glyph-name="Sacute" horiz-adv-x="1931" unicode="Ś"/><glyph d="M979 1454h348l-332 -293h-286zM1765 295q0 -102 -68.5 -169t-252.5 -106.5t-494 -39.5q-221 0 -380.5 22.5t-248 55t-142.5 88t-71.5 99.5t-31.5 111h338q106 -117 569 -116q246 0 349.5 14t103.5 47q0 53 -124 72.5t-358 27.5q-82 2 -133 4.5t-132 8.5t-134 12 t-123 19.5t-115 28.5t-94 40t-76.5 53.5t-46 68.5t-18.5 87q0 102 66.5 170t245.5 109.5t476 41.5q223 0 382 -20t245 -51t133 -81t59.5 -92t12.5 -104h-338q-35 57 -149.5 77t-387.5 20q-420 0 -419 -68q0 -41 114.5 -58.5t339.5 -29.5q53 -2 80 -4q41 -2 126 -6t131 -7.5 t122 -9.5t121 -16t103.5 -26.5t92 -41t66.5 -56.5t47 -76t14 -99z" glyph-name="sacute" horiz-adv-x="1812" unicode="ś"/><glyph d="M1841 434q0 -227 -197.5 -343t-553.5 -122l-35 -45q147 0 237 -55t90 -137q0 -90 -103 -162t-364 -72q-211 0 -315 31v203q111 -29 330 -29q197 0 196 43q0 37 -292 37h-160l131 199q-715 61 -715 501l371 -6q14 -113 125.5 -155.5t328.5 -51.5q152 -6 262.5 2.5 t165 22.5t85 38.5t35.5 39t7 35.5q2 33 -18 56t-63 38.5t-94.5 25t-123 15.5t-134 9t-143.5 8t-138 11q-631 66 -631 428q0 215 210 345.5t634 119.5q420 -10 615.5 -144t195.5 -345h-369q-12 106 -115.5 150t-351.5 49q-244 2 -347 -35t-103 -115q0 -37 19 -61.5t61 -40 t91.5 -24.5t123 -14t141 -8.5t164 -8.5t174.5 -13q82 -8 146.5 -18.5t149.5 -40t141 -72.5t96 -118t40 -171z" glyph-name="Scedilla" horiz-adv-x="1931" unicode="Ş"/><glyph d="M1765 295q0 -145 -153.5 -223t-532.5 -90l-39 -54q147 0 237.5 -55t90.5 -137q0 -90 -103.5 -162t-363.5 -72q-211 0 -315 31v203q111 -29 329 -29q197 0 197 43q0 37 -293 37h-160l132 197q-178 6 -307.5 32.5t-201 58t-117.5 85t-61.5 93.5t-27.5 103h338 q106 -117 569 -116q246 0 349.5 14t103.5 47q0 53 -124 72.5t-358 27.5q-82 2 -133 4.5t-132 8.5t-134 12t-123 19.5t-115 28.5t-94 40t-76.5 53.5t-46 68.5t-18.5 87q0 102 66.5 170t245.5 109.5t476 41.5q223 0 382 -20t245 -51t133 -81t59.5 -92t12.5 -104h-338 q-35 57 -149.5 77t-387.5 20q-420 0 -419 -68q0 -41 114.5 -58.5t339.5 -29.5q53 -2 80 -4q41 -2 126 -6t131 -7.5t122 -9.5t121 -16t103.5 -26.5t92 -41t66.5 -56.5t47 -76t14 -99z" glyph-name="scedilla" horiz-adv-x="1812" unicode="ş"/><glyph d="M1130 1536h-368l-412 309h389l207 -164l207 164h389zM494 1024q0 -37 19 -61.5t61 -40t91.5 -24.5t123 -14t141 -8.5t164 -8.5t174.5 -13q82 -8 146.5 -18.5t149.5 -40t141 -72.5t96 -118t40 -171q0 -254 -247.5 -368.5t-684.5 -92.5q-434 23 -626.5 153t-192.5 357 l371 -6q14 -113 125.5 -155.5t328.5 -51.5q152 -6 262.5 2.5t165 22.5t85 38.5t35.5 39t7 35.5q2 33 -18 56t-63 38.5t-94.5 25t-123 15.5t-134 9t-143.5 8t-138 11q-631 66 -631 428q0 215 210 345.5t634 119.5q420 -10 615.5 -144t195.5 -345h-369q-12 106 -115.5 150 t-351.5 49q-244 2 -347 -35t-103 -115z" glyph-name="Scaron" horiz-adv-x="1931" unicode="Š"/><glyph d="M1092 1147h-369l-412 309h389l207 -164l207 164h389zM1765 295q0 -102 -68.5 -169t-252.5 -106.5t-494 -39.5q-221 0 -380.5 22.5t-248 55t-142.5 88t-71.5 99.5t-31.5 111h338q106 -117 569 -116q246 0 349.5 14t103.5 47q0 53 -124 72.5t-358 27.5q-82 2 -133 4.5 t-132 8.5t-134 12t-123 19.5t-115 28.5t-94 40t-76.5 53.5t-46 68.5t-18.5 87q0 102 66.5 170t245.5 109.5t476 41.5q223 0 382 -20t245 -51t133 -81t59.5 -92t12.5 -104h-338q-35 57 -149.5 77t-387.5 20q-420 0 -419 -68q0 -41 114.5 -58.5t339.5 -29.5q53 -2 80 -4 q41 -2 126 -6t131 -7.5t122 -9.5t121 -16t103.5 -26.5t92 -41t66.5 -56.5t47 -76t14 -99z" glyph-name="scaron" horiz-adv-x="1812" unicode="š"/><glyph d="M1073 0h-72l-57 -76q147 0 237.5 -55t90.5 -137q0 -90 -103.5 -162t-363.5 -72q-211 0 -316 31v203q111 -29 330 -29q197 0 197 43q0 37 -293 37h-160l162 244v1099h-645v308h1638v-308h-645v-1126z" glyph-name="Tcommaaccent" horiz-adv-x="1798" unicode="Ţ"/><glyph d="M1692 389q-14 -86 -39 -145.5t-79 -112.5t-149.5 -84t-236.5 -41h2l-62 -82q147 0 237.5 -55t90.5 -137q0 -90 -103.5 -162t-363.5 -72q-211 0 -315 31v203q111 -29 330 -29q197 0 196 43q0 37 -293 37h-159l147 219q-309 18 -434 122.5t-125 301.5v322h-291v276h291v512 h348v-512h877v-276h-877v-328q0 -51 28.5 -84t87 -47.5t114 -18.5t141.5 -4q154 0 220 30t79 93h338z" glyph-name="tcommaaccent" horiz-adv-x="1726" unicode="ţ"/><glyph d="M1040 1536h-368l-412 309h389l207 -164l207 164h389zM1718 1434v-308h-645v-1126h-348v1126h-645v308h1638z" glyph-name="Tcaron" horiz-adv-x="1798" unicode="Ť"/><glyph d="M844 1638h307l-61 -491h-246v491zM1354 389h338q-14 -98 -46 -162.5t-104 -120t-202 -81t-326 -25.5q-377 0 -527.5 105.5t-150.5 320.5v322h-291v276h291v512h348v-512h877v-276h-877v-328q0 -51 28.5 -84t87 -47.5t114 -18.5t141.5 -4q154 0 220.5 30t78.5 93z" glyph-name="tcaron" horiz-adv-x="1726" unicode="ť"/><glyph d="M1718 1126h-645v-303h336v-225h-336v-598h-348v598h-371v225h371v303h-645v308h1638v-308z" glyph-name="Tbar" horiz-adv-x="1798" unicode="Ŧ"/><glyph d="M1407 449h348q0 -55 -4 -97.5t-19.5 -94.5t-43 -91t-78.5 -78t-121 -63.5t-174.5 -41t-235.5 -16.5q-373 -2 -542.5 120t-169.5 425v47h-291v246h291v113h-291v245h291v373h348v-373h876v-245h-876v-113h876v-246h-876v-74q0 -74 25.5 -122t77.5 -70.5t107.5 -30.5 t137.5 -8q76 0 117 2t91 12.5t75.5 30.5t43 57.5t17.5 92.5z" glyph-name="tbar" horiz-adv-x="1789" unicode="ŧ"/><glyph d="M1610 1597h-1270v195h1270v-195zM1806 518q-2 -119 -41 -212t-128 -173t-257 -123t-407 -43q-238 0 -405 43t-256 123t-128 173t-41 212v916h369v-897q0 -96 33 -148.5t136 -83.5t300 -31q258 0 356.5 60.5t100.5 202.5v897h368v-916z" glyph-name="Umacron" horiz-adv-x="1949" unicode="Ū"/><glyph d="M1538 1188h-1270v194h1270v-194zM1364 1024h348v-1024h-348v141q-8 -4 -66.5 -42t-88 -51t-94 -37.5t-144.5 -34t-180 -9.5q-176 0 -304.5 26.5t-203 69.5t-117.5 114t-57.5 143.5t-14.5 173.5v530h348v-530q0 -68 20.5 -112t53.5 -69.5t97.5 -39t127 -16.5t168.5 -3 q84 0 149.5 6t113 20.5t81 28t54 42t33 48t17.5 60.5t6 64.5t1 72.5v428z" glyph-name="umacron" unicode="ū"/><glyph d="M975 1516q-121 0 -197 73.5t-76 172t76 168t197 69.5q127 0 199.5 -73t72.5 -167q0 -102 -76.5 -172.5t-195.5 -70.5zM975 1659q37 0 57.5 4t28.5 19.5t10 28.5t2 46q0 63 -15.5 79.5t-82.5 16.5q-39 0 -59.5 -4t-28.5 -19t-9 -27.5t-1 -47.5q0 -41 3 -56.5t24.5 -27.5 t70.5 -12zM1806 518q-2 -119 -41 -212t-128 -173t-257 -123t-407 -43q-238 0 -405 43t-256 123t-128 173t-41 212v916h369v-897q0 -96 33 -148.5t136 -83.5t300 -31q258 0 356.5 60.5t100.5 202.5v897h368v-916z" glyph-name="Uring" horiz-adv-x="1949" unicode="Ů"/><glyph d="M903 1106q-121 0 -196.5 73.5t-75.5 172t75.5 168t196.5 69.5q127 0 200 -72.5t73 -166.5q0 -102 -77 -173t-196 -71zM903 1249q37 0 57.5 4t28.5 19.5t10 29t2 46.5q0 63 -15 79.5t-83 16.5q-39 0 -59.5 -4t-28.5 -19.5t-9 -28t-1 -46.5q0 -41 3 -56.5t24.5 -28 t70.5 -12.5zM1364 1024h348v-1024h-348v141q-8 -4 -66.5 -42t-88 -51t-94 -37.5t-144.5 -34t-180 -9.5q-176 0 -304.5 26.5t-203 69.5t-117.5 114t-57.5 143.5t-14.5 173.5v530h348v-530q0 -68 20.5 -112t53.5 -69.5t97.5 -39t127 -16.5t168.5 -3q84 0 149.5 6t113 20.5 t81 28t54 42t33 48t17.5 60.5t6 64.5t1 72.5v428z" glyph-name="uring" unicode="ů"/><glyph d="M745 1876h349l-312 -293h-307zM1421 1876h348l-311 -293h-307zM1806 518q-2 -119 -41 -212t-128 -173t-257 -123t-407 -43q-238 0 -405 43t-256 123t-128 173t-41 212v916h369v-897q0 -96 33 -148.5t136 -83.5t300 -31q258 0 356.5 60.5t100.5 202.5v897h368v-916z" glyph-name="Uhungarumlaut" horiz-adv-x="1949" unicode="Ű"/><glyph d="M674 1466h348l-311 -292h-308zM1350 1466h348l-312 -292h-307zM1364 1024h348v-1024h-348v141q-8 -4 -66.5 -42t-88 -51t-94 -37.5t-144.5 -34t-180 -9.5q-176 0 -304.5 26.5t-203 69.5t-117.5 114t-57.5 143.5t-14.5 173.5v530h348v-530q0 -68 20.5 -112t53.5 -69.5 t97.5 -39t127 -16.5t168.5 -3q84 0 149.5 6t113 20.5t81 28t54 42t33 48t17.5 60.5t6 64.5t1 72.5v428z" glyph-name="uhungarumlaut" unicode="ű"/><glyph d="M1438 1434h368v-916q-2 -102 -30.5 -184t-92 -157t-181.5 -125t-283 -70q-213 -45 -213 -138q0 -106 215 -106q152 0 229 18v-225q-84 -18 -260 -18q-285 0 -403.5 67.5t-118.5 190.5t141 202q-188 14 -321.5 62.5t-206 125.5t-104.5 163t-34 194v916h369v-897 q0 -96 33 -148.5t136 -83.5t300 -31q258 0 356.5 60.5t100.5 202.5v897z" glyph-name="Uogonek" horiz-adv-x="1949" unicode="Ų"/><glyph d="M1640 -254q152 0 230 18v-225q-84 -18 -260 -18q-285 0 -404 67.5t-119 190.5q0 170 277 260v102q-8 -4 -66.5 -42t-88 -51t-94 -37.5t-144.5 -34t-180 -9.5q-176 0 -304.5 26.5t-203 69.5t-117.5 114t-57.5 143.5t-14.5 173.5v530h348v-530q0 -68 20.5 -112t53.5 -69.5 t97.5 -39t127 -16.5t168.5 -3q84 0 149.5 6t113 20.5t81 28t54 42t33 48t17.5 60.5t6 64.5t1 72.5v428h348v-1024h-20q-43 -8 -65.5 -13t-68 -18.5t-69 -27t-44 -37t-20.5 -51.5q0 -107 215 -107z" glyph-name="uogonek" unicode="ų"/><glyph d="M1602 1907l411 -310h-389l-207 164l-207 -164h-389l412 310h369zM2329 1432h430l-514 -1432h-390l-442 1012l-442 -1012h-389l-514 1432h430l293 -1010l430 969h385l430 -990z" glyph-name="Wcircumflex" horiz-adv-x="2826" unicode="Ŵ"/><glyph d="M1440 1497l411 -309h-389l-207 164l-206 -164h-390l412 309h369zM2064 1024h410l-444 -1022h-447l-332 592l-331 -592h-441l-450 1022h409l279 -735l360 694h348l361 -694z" glyph-name="wcircumflex" horiz-adv-x="2502" unicode="ŵ"/><glyph d="M938 1761l-207 -164h-389l412 310h368l412 -310h-389zM1808 1434l-700 -908v-526h-348v524l-703 910h430l447 -613l444 613h430z" glyph-name="Ycircumflex" horiz-adv-x="1865" unicode="Ŷ"/><glyph d="M1110 1497l412 -309h-389l-207 164l-207 -164h-389l411 309h369zM1343 1024h349v-862q0 -242 -79 -376t-262.5 -193.5t-514.5 -59.5q-680 0 -707 365h338q43 -109 401 -109q193 0 298.5 38t141 106.5t35.5 187.5q-49 -70 -202.5 -112t-349.5 -42q-170 0 -294 26.5 t-197 69.5t-115 114t-56 143.5t-14 173.5v530h348v-530q0 -66 20.5 -111t51 -70.5t90 -39t115 -16.5t149.5 -3q70 0 124 2t98 9t77 12.5t57.5 20.5t41 25.5t27.5 35t17 40t9 50t3 56v68.5v451z" glyph-name="ycircumflex" horiz-adv-x="1822" unicode="ŷ"/><glyph d="M594 1548q-115 0 -160 36t-45 128q0 86 47 125t158 39t158 -39t47 -125q0 -92 -45 -128t-160 -36zM1185.5 1548q-114.5 0 -159.5 36t-45 128q0 86 46 125t159 39q111 0 158 -39t47 -125q0 -92 -45.5 -128t-160 -36zM1808 1434l-700 -908v-526h-348v524l-703 910h430 l447 -613l444 613h430z" glyph-name="Ydieresis" horiz-adv-x="1865" unicode="Ÿ"/><glyph d="M1358 1890l-322 -293h-327l270 293h379zM700 287h1041v-287h-1639v164l981 983h-968v287h1597v-164z" glyph-name="Zacute" horiz-adv-x="1839" unicode="Ź"/><glyph d="M977 1481h379l-322 -293h-327zM637 242l1030 6v-248h-1597v164l876 618l-856 -4v246h1464v-164z" glyph-name="zacute" horiz-adv-x="1716" unicode="ź"/><glyph d="M901.5 1597q-102.5 0 -143.5 36t-41 128q0 86 42 125t142 39t142 -39t42 -125q0 -92 -40.5 -128t-143 -36zM700 287h1041v-287h-1639v164l981 983h-968v287h1597v-164z" glyph-name="Zdotaccent" horiz-adv-x="1839" unicode="Ż"/><glyph d="M899 1188q-102 0 -143 36t-41 128q0 86 42 125t142 39t142 -39t42 -125q0 -92 -41 -128t-143 -36zM637 242l1030 6v-248h-1597v164l876 618l-856 -4v246h1464v-164z" glyph-name="zdotaccent" horiz-adv-x="1716" unicode="ż"/><glyph d="M1094 1536h-369l-412 309h389l207 -164l207 164h389zM700 287h1041v-287h-1639v164l981 983h-968v287h1597v-164z" glyph-name="Zcaron" horiz-adv-x="1839" unicode="Ž"/><glyph d="M1092 1126h-369l-412 310h389l207 -164l207 164h389zM637 242l1030 6v-248h-1597v164l876 618l-856 -4v246h1464v-164z" glyph-name="zcaron" horiz-adv-x="1716" unicode="ž"/><glyph d="M1493 1843h348l-332 -293h-286zM2329 1432h430l-514 -1432h-390l-442 1012l-442 -1012h-389l-514 1432h430l293 -1010l430 969h385l430 -990z" glyph-name="Wacute" horiz-adv-x="2826" unicode="Ẃ"/><glyph d="M1331 1434h348l-331 -293h-287zM2064 1024h410l-444 -1022h-447l-332 592l-331 -592h-441l-450 1022h409l279 -735l360 694h348l361 -694z" glyph-name="wacute" horiz-adv-x="2502" unicode="ẃ"/><glyph d="M1073 1548q-115 0 -160 36t-45 128q0 86 47.5 125t158 39t157.5 -39t47 -125q0 -92 -45 -128t-160 -36zM1665 1548q-115 0 -160 36t-45 128q0 86 46 125t159 39t159 -39t46 -125q0 -92 -45 -128t-160 -36zM2329 1432h430l-514 -1432h-390l-442 1012l-442 -1012h-389 l-514 1432h430l293 -1010l430 969h385l430 -990z" glyph-name="Wdieresis" horiz-adv-x="2826" unicode="Ẅ"/><glyph d="M911.5 1139q-114.5 0 -159.5 35.5t-45 128.5q0 86 46 124.5t158.5 38.5t158.5 -38.5t46 -124.5q0 -92 -45 -128t-159.5 -36zM1503.5 1139q-114.5 0 -160 35.5t-45.5 128.5q0 86 47.5 124.5t158 38.5t157.5 -38.5t47 -124.5q0 -92 -45 -128t-159.5 -36zM2064 1024h410 l-444 -1022h-447l-332 592l-331 -592h-441l-450 1022h409l279 -735l360 694h348l361 -694z" glyph-name="wdieresis" horiz-adv-x="2502" unicode="ẅ"/><glyph d="M1516 465h-1434v266h1434v-266z" glyph-name="endash" horiz-adv-x="1597" unicode="–"/><glyph d="M2130 465h-2048v266h2048v-266z" glyph-name="emdash" horiz-adv-x="2211" unicode="—"/><glyph d="M389 868h-307l182 566h215z" glyph-name="quoteleft" horiz-adv-x="583" unicode="‘"/><glyph d="M170 1434h307l-182 -566h-215z" glyph-name="quoteright" horiz-adv-x="526" unicode="’"/><glyph d="M195 242h307l-183 -566h-215z" glyph-name="quotesinglbase" horiz-adv-x="583" unicode="‚"/><glyph d="M358 868h-307l203 566h215zM911 868h-307l203 566h215z" glyph-name="quotedblleft" horiz-adv-x="1146" unicode="“"/><glyph d="M236 1434h307l-203 -566h-215zM788 1434h308l-203 -566h-215z" glyph-name="quotedblright" horiz-adv-x="1146" unicode="”"/><glyph d="M209 242h307l-203 -566h-215zM762 242h307l-203 -566h-215z" glyph-name="quotedblbase" horiz-adv-x="1146" unicode="„"/><glyph d="M1028 1311v-246h-297v-449h-307v449h-297v246h297v223h307v-223h297z" glyph-name="dagger" horiz-adv-x="1155" unicode="†"/><glyph d="M1061 1147h-297v-141h297v-226h-297v-164h-307v164h-297v226h297v141h-297v225h297v162h307v-162h297v-225z" glyph-name="daggerdbl" horiz-adv-x="1220" unicode="‡"/><glyph d="M559.5 113q-231.5 0 -330 90t-98.5 317q0 213 101.5 311.5t326.5 98.5t326.5 -98.5t101.5 -311.5q0 -227 -98 -317t-329.5 -90z" glyph-name="bullet" horiz-adv-x="1118" unicode="•"/><glyph d="M309.5 -2q-100.5 0 -142.5 37t-42 127q0 86 43 125t141.5 39t141.5 -39t43 -125q0 -90 -42 -127t-142.5 -37zM936 -2q-100 0 -142 37t-42 127q0 86 43 125t141 39t141 -39t43 -125q0 -90 -42 -127t-142 -37zM1566.5 -2q-100.5 0 -142.5 37t-42 127q0 86 43 125t141.5 39 t141.5 -39t43 -125q0 -90 -42 -127t-142.5 -37z" glyph-name="ellipsis" horiz-adv-x="1875" unicode="…"/><glyph d="M514 1440q389 0 389 -371q0 -166 -92 -267.5t-295 -101.5q-213 0 -302 105.5t-89 271.5q0 363 389 363zM1653 1434l-875 -1434h-307l875 1434h307zM514 897q113 0 145.5 35t32.5 133q0 100 -33.5 140t-144.5 40q-109 0 -143.5 -41t-34.5 -139t33.5 -133t144.5 -35z M1644.5 739q389.5 0 389.5 -370q0 -166 -92.5 -267.5t-294.5 -101.5q-213 0 -302.5 105.5t-89.5 271.5q0 362 389.5 362zM2539.5 739q389.5 0 389.5 -370q0 -166 -92.5 -267.5t-294.5 -101.5q-213 0 -302.5 105.5t-89.5 271.5q0 362 389.5 362zM1645 197q113 0 145.5 34.5 t32.5 133.5q0 100 -34 140t-144 40q-109 0 -144 -41t-35 -139.5t34 -133t145 -34.5zM2540 197q113 0 145.5 34.5t32.5 133.5q0 100 -34 140t-144 40q-109 0 -144 -41t-35 -139.5t34 -133t145 -34.5z" glyph-name="perthousand" horiz-adv-x="3088" unicode="‰"/><glyph d="M715 1024l-328 -369l328 -368h-348l-308 368l308 369h348z" glyph-name="guilsinglleft" horiz-adv-x="792" unicode="‹"/><glyph d="M426 1024l307 -369l-307 -368h-348l328 368l-328 369h348z" glyph-name="guilsinglright" horiz-adv-x="792" unicode="›"/><glyph d="M1305 1434l-875 -1434h-369l875 1434h369z" glyph-name="fraction" horiz-adv-x="1325" unicode="⁄"/><glyph d="M1321 1126q-356 0 -438 -14q-135 -23 -176 -117l-5 -10h762v-225h-794v-58v-34h794v-226h-764q39 -94 144.5 -114.5t404.5 -20.5h74h301v-307h-194h-91q-82 0 -167 -1t-172 8t-167.5 23.5t-156.5 47.5t-137.5 79t-109.5 118.5t-75 166.5h-200v226h168v34q0 39 2 58h-170 v225h204q33 111 93.5 193t137.5 128t170 76.5t189 37.5t196.5 13.5t192.5 0.5h88h199v-308h-303z" glyph-name="Euro" horiz-adv-x="1798" unicode="€"/><glyph d="M131 1241v193h741v-193h-256v-420h-229v420h-256zM1593 1434h250v-613h-211l6 309l-165 -309h-168l-166 309l6 -309h-211v613h248l207 -363z" glyph-name="trademark" horiz-adv-x="2029" unicode="™"/><glyph d="M1686 739v-266h-1108q115 -133 114 -348h-286q0 176 -76 262t-201 86v266q125 0 201 86t76 262h286q0 -215 -114 -348h1108z" glyph-name="arrowleft" horiz-adv-x="1814" unicode="←"/><glyph d="M1104 1163v-297q-215 0 -348 97v-957h-287v957q-133 -96 -348 -97v297q176 0 262 76t86 201h287q0 -125 86 -201t262 -76z" glyph-name="arrowup" horiz-adv-x="1224" unicode="↑"/><glyph d="M1409 1087q0 -176 76 -262t201 -86v-266q-125 0 -201 -86t-76 -262h-287q0 215 115 348h-1108v266h1108q-115 133 -115 348h287z" glyph-name="arrowright" horiz-adv-x="1814" unicode="→"/><glyph d="M756 483q133 96 348 97v-297q-176 0 -262 -76t-86 -201h-287q0 125 -86 201t-262 76v297q215 0 348 -97v957h287v-957z" glyph-name="arrowdown" horiz-adv-x="1224" unicode="↓"/><glyph d="M1573 1087q0 -176 75.5 -262t200.5 -86v-266q-125 0 -200.5 -86t-75.5 -262h-287q0 215 115 348h-823q115 -133 114 -348h-286q0 176 -76 262t-201 86v266q125 0 201 86t76 262h286q0 -215 -114 -348h823q-115 133 -115 348h287z" glyph-name="arrowboth" horiz-adv-x="1978" unicode="↔"/><glyph d="M1120 440q-176 0 -262 -75.5t-86 -200.5h-266q0 125 -86 200.5t-262 75.5v287q215 0 348 -115v475q-133 -115 -348 -114v287q176 0 262 75.5t86 200.5h266q0 -125 86 -200.5t262 -75.5v-287q-215 0 -348 114v-475q133 115 348 115v-287z" glyph-name="arrowupdn" horiz-adv-x="1277" unicode="↕"/><glyph d="M1348 463l-203 -203l-672 604q-18 -180 -182 -344l-209 211q84 84 113.5 167t11 150.5t-75.5 122.5l203 203l22 -20q55 -47 121 -58.5t143.5 20.5t155.5 109l211 -211q-133 -133 -285 -172z" glyph-name="uni2196" horiz-adv-x="1445" unicode="↖"/><glyph d="M1364 739l-209 -211q-164 164 -182 344l-672 -604l-203 203l645 580q-152 39 -284 172l211 211q78 -78 155.5 -110t143 -20.5t121.5 58.5l22 20l203 -202q-57 -55 -75.5 -123t11 -151t113.5 -167z" glyph-name="uni2197" horiz-adv-x="1476" unicode="↗"/><glyph d="M1264 680q-78 -78 -110 -156t-20.5 -143.5t58.5 -120.5l20 -22l-202 -203q-55 57 -123 75.5t-151 -11t-167 -113.5l-211 209q164 164 344 182l-604 672l203 202l580 -645q39 152 172 285z" glyph-name="uni2198" horiz-adv-x="1374" unicode="↘"/><glyph d="M1348 961l-646 -580q152 -39 285 -172l-211 -211q-78 78 -155.5 109.5t-143 20.5t-121.5 -58l-22 -21l-203 203q57 55 75.5 122.5t-11 150.5t-113.5 167l209 211q164 -164 182 -344l672 604z" glyph-name="uni2199" horiz-adv-x="1445" unicode="↙"/><glyph d="M592 1446q123 20 270 20q252 0 439.5 -63.5t295 -175t158.5 -247.5t51 -296q0 -684 -899 -684q-414 0 -599 138t-185 370q0 217 163 349t537 128q473 -6 643 -213q0 139 -116.5 237.5t-294.5 137.5t-373 20zM995 299q209 2 322 47t143 156q-127 182 -559 186q-43 2 -92 0 t-97 -5t-91 -15.5t-77 -32t-53.5 -54t-19.5 -81.5q0 -49 22.5 -86t61.5 -57.5t90 -35t109.5 -17.5t120 -5t120.5 0z" glyph-name="partialdiff" horiz-adv-x="1941" unicode="∂"/><glyph d="M1622 1192l-213 -213q102 -152 102 -358q0 -270 -168.5 -445.5t-476.5 -175.5q-207 0 -352 84l-227 -227l-181 180l220 219q-109 158 -109 371q0 256 165 429t484 173q209 0 355 -78l221 221zM504 610q0 -94 18 -157l492 491q-66 16 -146 17q-195 0 -279.5 -85.5 t-84.5 -265.5zM1225 610q0 100 -23 162l-487 -487q59 -14 153 -15q193 0 275 76t82 264z" glyph-name="emptyset" horiz-adv-x="1728" unicode="∅"/><glyph d="M1815 1434v-267h-351l9 -1538h-328l8 1538h-405l8 -1538h-328l8 1538h-323v267h1702z" glyph-name="product" horiz-adv-x="1927" unicode="∏"/><glyph d="M1442 1434v-287h-799l449 -641l-449 -641h799v-287h-1311v164l541 764l-541 764v164h1311z" glyph-name="summation" horiz-adv-x="1585" unicode="∑"/><glyph d="M1413 455h-1249v266h1249v-266z" glyph-name="minus" horiz-adv-x="1576" unicode="−"/><glyph d="M1800 1434v-287h-403l-520 -1567h-523l-252 617h369l133 -396l4 -6l518 1639h674z" glyph-name="radical" horiz-adv-x="1912" unicode="√"/><glyph d="M1772 1075q295 0 427 -98t132 -293q0 -203 -132.5 -304t-426.5 -101q-182 0 -311.5 57t-233.5 182q-205 -211 -543 -211q-293 0 -419 97.5t-126 293.5q0 205 126 305.5t419 100.5q182 0 310 -57.5t233 -182.5q209 211 545 211zM670 537q262 0 391 161q-72 113 -159 144.5 t-232 31.5q-162 0 -218.5 -44t-56.5 -132q0 -86 54.5 -123.5t220.5 -37.5zM1786 508q162 0 218 44t56 132q0 86 -55 124t-219 38q-262 0 -391 -162q72 -113 159 -144.5t232 -31.5z" glyph-name="infinity" horiz-adv-x="2467" unicode="∞"/><glyph d="M1284 1432q47 0 95 -3.5t77 -6.5t55.5 -6t30.5 -3l-35 -291q-131 16 -209 17q-100 0 -145 -32t-68 -103l-213 -1004q-53 -254 -161.5 -341t-339.5 -87q-49 0 -98.5 3t-78 6t-55 6t-30.5 3l34 291q131 -16 189 -16q100 0 145 31.5t68 103.5l213 1004q55 252 171.5 340 t354.5 88z" glyph-name="integral" horiz-adv-x="1650" unicode="∫"/><glyph d="M1190 934h246q0 -168 -96.5 -264.5t-258.5 -96.5q-137 0 -269 62.5t-243 62.5q-152 0 -178 -125h-246q0 152 112 257.5t288 105.5q129 0 265 -62.5t226 -62.5q74 0 114 32t40 91zM1190 422h246q0 -168 -96.5 -264.5t-258.5 -96.5q-137 0 -269 62.5t-243 62.5 q-152 0 -178 -125h-246q0 152 112 257.5t288 105.5q129 0 265 -62.5t226 -62.5q74 0 114 32t40 91z" glyph-name="approxequal" horiz-adv-x="1585" unicode="≈"/><glyph d="M1427 694h-409l-119 -227h528v-254h-663l-111 -209h-327l110 209h-278v254h413l119 227h-532v256h669l107 203h328l-107 -203h272v-256z" glyph-name="notequal" horiz-adv-x="1585" unicode="≠"/><glyph d="M1389 1212v-292l-834 -148l834 -127v-313l-1250 303v274zM150 0v246h1249v-246h-1249z" glyph-name="lessequal" horiz-adv-x="1605" unicode="≤"/><glyph d="M201 1212l1249 -303v-274l-1249 -303v313l833 127l-833 148v292zM1440 0h-1250v246h1250v-246z" glyph-name="greaterequal" horiz-adv-x="1605" unicode="≥"/><glyph d="M739 1311l301 -748l-301 -749h-323l-301 749l301 748h323zM578 25l186 538l-186 537l-187 -537z" glyph-name="lozenge" horiz-adv-x="1155" unicode="◊"/><glyph d="M1448 639h-305q-12 -68 -45 -121l211 -211l-115 -117l-217 218q-45 -27 -115 -39v-301h-164v301q-70 12 -116 39l-217 -218l-115 117l211 211q-33 55 -49 121h-301v164h301q12 72 47 123l-211 211l117 114l217 -217q51 27 114 35v303h164v-303q70 -12 125 -41l-8 8 l217 217l115 -116l-213 -213q35 -57 47 -121h305v-164zM778 522q205 0 205 191q0 102 -54.5 153.5t-150.5 51.5t-151.5 -51.5t-55.5 -153.5q0 -191 207 -191z" glyph-name="sun" horiz-adv-x="1558" unicode="☼"/><glyph d="M1718 786q63 -23 102.5 -64.5t52.5 -106t16 -97.5t3 -94q0 -215 -158.5 -321.5t-545.5 -104.5l-1018 2v1434h1141q291 0 416.5 -97.5t125.5 -255.5q0 -180 -135 -295zM518 1198v-321l793 2q104 0 139 45t35 157q0 115 -174 115zM1290 297q147 0 191.5 29.5t44.5 115.5 q0 109 -44 148t-192 39l-772 2v-336z" glyph-name="glyph294" horiz-adv-x="2000"/><glyph d="M1839 842q8 -88 8 -183q0 -377 -185 -532.5t-656 -157.5q-260 0 -441.5 55.5t-280 160t-140.5 232.5t-42 296v12q2 385 221.5 563t686.5 178q145 0 277 -14t215 -34.5t145.5 -42t89.5 -36.5l26 -14v-301q-311 139 -706 139q-125 0 -204 -5t-152.5 -21.5t-113.5 -45 t-71 -79.5t-42 -121t-11 -172q0 -74 6 -129t14.5 -100.5t30 -77t39.5 -55t58 -39t71 -23.5t90 -12t105.5 -5.5t128.5 -1.5q80 0 124 1.5t107 6.5t99 15t79 30.5t65.5 50.5t41 74t24.5 101h-805v287h1098z" glyph-name="G.aalt" horiz-adv-x="1953"/><glyph d="M213 1434h1255l-6 -791q-2 -340 -199.5 -508t-551.5 -168q-166 0 -323 35t-230 72l-74 35v301q94 -51 270 -93.5t322 -42.5q199 0 309.5 64.5t112.5 228.5l2 570h-887v297z" glyph-name="J.aalt" horiz-adv-x="1605"/><glyph d="M1860 1434l-693 -719l693 -719h-461l-543 573l-338 -10v-559h-348v1434h348v-588l352 10l549 578h441z" glyph-name="K.aalt" horiz-adv-x="1927"/><glyph d="M967 414q20 -119 274 -119q135 0 282.5 42t202.5 77v-308q-193 -106 -534 -106q-264 0 -410.5 108.5t-163.5 305.5h-100v-414h-348v1434h772q221 0 381 -36t244 -85t132 -125t59 -133.5t14 -130.5q-2 -59 -10.5 -106.5t-34 -111t-81 -110.5t-139.5 -90t-222 -66.5 t-318 -25.5zM518 1128v-409l588 2q193 2 245 42t52 160.5t-52.5 160.5t-244.5 42z" glyph-name="R.salt" horiz-adv-x="1880"/><glyph d="M1120 866q127 -6 222.5 -19t188.5 -43t153.5 -77t96.5 -124t36 -179q0 -217 -241 -335t-620 -116h-8q-164 0 -305 15.5t-225 36t-144.5 41t-85.5 34.5l-22 15v315q311 -139 747 -139h35h82q403 0 404 153q0 76 -106.5 95.5t-444.5 27.5q-72 2 -111 2q-678 16 -678 449h2 q0 207 234.5 327.5t630.5 120.5q485 0 739 -141v-315q-145 66 -351 102.5t-388 36.5q-481 0 -482 -150q0 -23 8.5 -39t26.5 -28t38.5 -20.5t57.5 -14.5t72 -9t89 -6t100.5 -5.5t118 -4.5t130.5 -6z" glyph-name="S.aalt" horiz-adv-x="1902"/><glyph d="M1772 985q-12 -403 -613 -444l516 -541h-430l-495 537h-232v-537h-348v1434h854q734 0 748 -449zM518 1128v-286l608 2q166 0 221.5 38t55.5 103.5t-55.5 103t-221.5 37.5z" glyph-name="R.ss02" horiz-adv-x="1851"/><glyph d="M491.5 1188q-102.5 0 -143.5 36t-41 128q0 86 42 125t142.5 39t142.5 -39t42 -125q0 -92 -41 -128t-143.5 -36zM317 1024h349v-928q0 -297 -152 -421t-438 -124q-90 0 -166 3.5t-113 7.5t-68.5 8t-35.5 4v287q313 -18 383 -19q98 0 169.5 45t71.5 156v981z" glyph-name="glyph301" horiz-adv-x="815"/><glyph d="M1071 1049q195 0 337 -30t223 -77t128 -119.5t61.5 -141.5t14.5 -161q0 -100 -17.5 -175t-71.5 -149.5t-147.5 -121.5t-253 -77t-378.5 -30q-215 0 -372 26.5t-248 67.5t-144 108t-70.5 133.5t-17.5 156.5v1179h368v-704q199 115 588 115zM967 264q295 0 370 23 q100 29 121 131q8 37 8 92q0 170 -90 206t-411 36h-50q-123 0 -181 -2t-120.5 -11.5t-86 -31t-39 -57.5t-15.5 -93v-98q0 -49 8 -82t38 -55.5t54.5 -34t93 -16.5t118 -6t159.5 -1h23z" glyph-name="b.aalt" horiz-adv-x="1894"/><glyph d="M1765 295q0 -102 -68.5 -169t-252.5 -106.5t-494 -39.5q-221 0 -380.5 22.5t-248 55t-142.5 88t-71.5 99.5t-31.5 111h338q106 -117 569 -116q246 0 349.5 14t103.5 47q0 53 -124 72.5t-358 27.5q-82 2 -133 4.5t-132 8.5t-134 12t-123 19.5t-115 28.5t-94 40t-76.5 53.5 t-46 68.5t-18.5 87q0 102 66.5 170t245.5 109.5t476 41.5q223 0 382 -20t245 -51t133 -81t59.5 -92t12.5 -104h-338q-35 57 -149.5 77t-387.5 20q-420 0 -419 -68q0 -41 114.5 -58.5t339.5 -29.5q53 -2 80 -4q41 -2 126 -6t131 -7.5t122 -9.5t121 -16t103.5 -26.5t92 -41 t66.5 -56.5t47 -76t14 -99zM3578 295q0 -102 -68.5 -169t-253 -106.5t-493.5 -39.5q-221 0 -381 22.5t-248 55t-142.5 88t-71.5 99.5t-32 111h338q106 -117 570 -116q246 0 349 14t103 47q0 53 -124 72.5t-357 27.5q-82 2 -133 4.5t-132 8.5t-134.5 12t-123 19.5 t-114.5 28.5t-94 40t-77 53.5t-46.5 68.5t-18.5 87q0 102 67 170t246 109.5t476 41.5q223 0 382 -20t245 -51t133 -81t59 -92t12 -104h-338q-35 57 -149.5 77t-386.5 20q-420 0 -420 -68q0 -41 114.5 -58.5t340.5 -29.5q53 -2 80 -4q41 -2 126 -6t131 -7.5t121.5 -9.5 t120.5 -16t103.5 -26.5t92.5 -41t66.5 -56.5t47 -76t14.5 -99z" glyph-name="glyph303" horiz-adv-x="3624"/><glyph d="M463 307h1198v-297h-1546v305q0 256 167 397.5t519 143.5l272 2q51 0 79 2t61.5 10.5t50 25.5t28 49t11.5 79q0 111 -67 133.5t-292 22.5h-51q-92 0 -141.5 -1t-107.5 -7.5t-85 -19.5t-52.5 -35.5t-34.5 -57.5t-9 -84h-348q0 111 30.5 192.5t110.5 153.5t239.5 108.5 t397.5 36.5q229 0 386 -36.5t233.5 -104.5t107.5 -142.5t31 -172.5q0 -236 -157 -331t-456 -99q-367 -4 -477 -53.5t-98 -219.5z" glyph-name="glyph304" horiz-adv-x="1767"/><glyph d="M434 276l1219 11v-287h-1547v315q0 102 122 192.5t297 153t350.5 120t297 119t121.5 124.5v2q-2 100 -81.5 127t-327.5 27q-92 0 -141.5 -1t-107.5 -7.5t-85 -19.5t-52.5 -35.5t-34.5 -57.5t-9 -84h-349q0 111 31 192.5t111 153.5t239.5 108.5t397.5 36.5 q217 0 370.5 -36.5t234.5 -101t116.5 -138.5t35.5 -164v-2q0 -119 -111.5 -222.5t-277.5 -176t-334.5 -131t-309 -115t-175.5 -103.5z" glyph-name="glyph305" horiz-adv-x="1753"/><glyph d="M1444 639h-305q-12 -68 -45 -121l211 -211l-115 -117l-217 218q-45 -27 -115 -39v-301h-164v301q-70 12 -116 39l-218 -218l-114 117l211 211q-33 55 -49 121h-302v164h302q12 72 47 123l-211 211l116 114l218 -217q51 27 114 35v303h164v-303q70 -12 125 -41l-8 8 l217 217l115 -116l-213 -213q35 -57 47 -121h305v-164z" glyph-name="glyph306" horiz-adv-x="1550"/><glyph d="M954 0q-213 0 -374.5 61.5t-256 167t-141.5 232.5t-47 270t46 266t141.5 222.5t256 157t371.5 57.5q219 0 384 -61.5t255 -167t133 -226.5t43 -260q0 -313 -208 -516t-603 -203zM954 176q315 0 470 120t155 402q0 287 -156.5 424.5t-470.5 137.5q-631 0 -630 -560 q0 -285 157.5 -404.5t474.5 -119.5zM755.5 733q-75.5 0 -108.5 31t-33 104q0 70 34 103t107.5 33t107.5 -33t34 -103q0 -74 -33 -104.5t-108.5 -30.5zM1165.5 733q-75.5 0 -108.5 31t-33 104q0 70 34 103t107.5 33t107.5 -33t34 -103q0 -74 -33 -104.5t-108.5 -30.5z M891 297q-109 0 -156 43t-47 152q0 100 48 147t155 47q109 0 157 -47t48 -147q0 -109 -47 -152t-158 -43z" glyph-name="glyph307" horiz-adv-x="1902"/><glyph d="M872 0q-213 0 -374.5 61.5t-256 167t-141.5 232.5t-47 270t46 266t141.5 222.5t256 157t371.5 57.5q219 0 384 -61.5t255 -167t133 -226.5t43 -260q0 -313 -208 -516t-603 -203zM872 176q315 0 470 120t155 402q0 287 -156.5 424.5t-470.5 137.5q-631 0 -630 -560 q0 -285 157.5 -404.5t474.5 -119.5zM680 733q-76 0 -108.5 31t-32.5 104q0 70 33.5 103t107.5 33t107.5 -33t33.5 -103q0 -74 -32.5 -104.5t-108.5 -30.5zM1089.5 733q-75.5 0 -108.5 31t-33 104q0 70 34 103t107.5 33t107.5 -33t34 -103q0 -74 -33 -104.5t-108.5 -30.5z M880.5 346q-108.5 0 -187.5 17.5t-124 42t-73.5 67.5t-37.5 79t-18 89h174q12 -88 68.5 -115.5t198 -27.5t198 27.5t68.5 115.5h174q-8 -53 -17.5 -89t-38 -79t-73.5 -67.5t-124 -42t-187.5 -17.5z" glyph-name="glyph308" horiz-adv-x="1738"/><glyph d="M954 0q-213 0 -374.5 61.5t-256 167t-141.5 232.5t-47 270t46 266t141.5 222.5t256 157t371.5 57.5q219 0 384 -61.5t255 -167t133 -226.5t43 -260q0 -313 -208 -516t-603 -203zM954 176q315 0 470 120t155 402q0 287 -156.5 424.5t-470.5 137.5q-631 0 -630 -560 q0 -285 157.5 -404.5t474.5 -119.5zM762 733q-76 0 -108.5 31t-32.5 104q0 70 33.5 103t107.5 33t107.5 -33t33.5 -103q0 -74 -32.5 -104.5t-108.5 -30.5zM1171.5 733q-75.5 0 -108.5 31t-33 104q0 70 34 103t107.5 33t107.5 -33t34 -103q0 -74 -33 -104.5t-108.5 -30.5z M962.5 682q108.5 0 187.5 -17.5t124 -42t73.5 -67.5t38 -79t17.5 -89h-174q-12 88 -68.5 115.5t-198 27.5t-197.5 -27.5t-69 -115.5h-174q8 53 17.5 89t38 79t73.5 67.5t124 42t187.5 17.5z" glyph-name="glyph309" horiz-adv-x="1902"/><glyph d="M954 0q-213 0 -374.5 61.5t-256 167t-141.5 232.5t-47 270t46 266t141.5 222.5t256 157t371.5 57.5q219 0 384 -61.5t255 -167t133 -226.5t43 -260q0 -313 -208 -516t-603 -203zM954 176q315 0 470 120t155 402q0 287 -156.5 424.5t-470.5 137.5q-631 0 -630 -560 q0 -285 157.5 -404.5t474.5 -119.5zM747.5 733q-75.5 0 -108.5 31t-33 104q0 70 34 103t107.5 33t107.5 -33t34 -103q0 -74 -33 -104.5t-108.5 -30.5zM1157 733q-76 0 -108.5 31t-32.5 104q0 70 33.5 103t107.5 33t107.5 -33t33.5 -103q0 -74 -32.5 -104.5t-108.5 -30.5z M684 618h535v-143h-535v143z" glyph-name="glyph310" horiz-adv-x="1902"/><glyph d="M1712 778q0 -340 -381 -483l10 -293h-880l10 291q-195 72 -290 196.5t-95 288.5q0 125 47 238.5t140.5 209t255 152t370.5 56.5t371 -56.5t255 -152t140 -209t47 -238.5zM1167 426q215 66 287 132.5t72 219.5q0 229 -161 354t-466 128q-305 -2 -466 -127t-161 -355 q0 -154 73 -222.5t284 -129.5l4 -276h121l-11 276h127l-12 -276h105l-13 276h127l-10 -276h115zM659.5 922q73.5 0 107.5 -33t34 -103q0 -74 -33 -104.5t-108.5 -30.5t-108.5 31t-33 104q0 70 34 103t107.5 33zM1151 922q74 0 107.5 -33t33.5 -103q0 -74 -32.5 -104.5 t-108.5 -30.5t-108.5 31t-32.5 104q0 70 33.5 103t107.5 33z" glyph-name="glyph311" horiz-adv-x="1798"/></font>
</defs>
</svg>
